This file was generated by Ched 2.7.0.0.
#TITLE ""
#ARTIST ""
#DESIGNER ""
#DIFFICULTY 0
#PLAYLEVEL
#SONGID ""
#WAVE ""
#WAVEOFFSET 0
#JACKET ""
#REQUEST "ticks_per_beat 480"
#00002: 4
#BPM01: 118
#00008: 01
#TIL00: ""
#VOLUME: ""
#HISPEED 00
#MEASUREHS 00
#00018:00140014
#00014:24
#00114:00140014
#00218:00140014
#00314:00140000
#00414:00140014
#0041a:24
#0051a:14
#00514:00140014
#00612:00140014
#00618:14
#00712:00140014
#00718:14
#0081a:14
#00814:0014
#00810:41
#0091a:14
#00914:0014
#01114:1414
#01118:00140014
#01212:14
#01218:0014
#01312:14
#01318:0014
#01518:1414
#01514:00140014
#02018:14
#02114:14
#0221a:14
#02312:14
#02414:00140000
#02418:0014
#02412:00000014
#0241a:24
#02410:41
#02618:14
#02612:00140000
#0261a:0014
#02614:00000014
#02818:00140000
#02814:0014
#0281a:00000014
#02812:14
#02914:14
#02918:00140000
#0301a:14
#03014:00140000
#03018:0014
#03012:00000014
#03010:41
#0311a:14
#03114:00140000
#03118:0014
#03112:00000014
#0321a:14
#03214:00140000
#03218:0014
#03212:00000014
#03318:14
#03312:00140000
#0331a:0014
#03314:00000014
#0361a:14
#03617:0014
#03610:41
#0371a:14
#03717:0014
#0381a:14
#03817:0014
#0381f:11
#04012:14
#04015:0014
#04112:14
#04115:0014
#04212:14
#04215:0014
#0391a:14
#04312:14
#04414:00140000
#0441a:0014
#04412:00000014
#04418:24
#0441f:21
#04410:0041
#04512:0026000016001600
#04518:2600260000160000
#04618:14
#04612:00140000
#0461a:0014
#04614:00000014
#04818:00140000
#04814:0014
#0481a:00000014
#04812:14
#04914:14
#04918:0000140000260000
#04912:00002626
#0501a:14
#05014:00140000
#05018:0014
#05012:00000014
#0511a:14
#05114:00140000
#05118:0014
#05112:00000014
#0521a:14
#05217:0014
#05312:00140000
#05316:0014
#0531a:00000014
#05412:14000014
#0541a:00140000
#05416:0014
#0551a:14000014
#05512:00140000
#05516:0014
#05618:00140014
#05612:24
#05714:00140014
#05818:00140014
#05914:00140024
#0251a:24
#01610:41
#0045a:14
#02058:54
#02154:64
#0225a:64
#02352:54
#02354:00000014
#0325a:14
#03657:0024
#0365a:64
#0375a:64
#03757:0024
#0385a:64
#03857:0024
#04052:54
#04055:0024
#04152:54
#04155:0024
#04252:54
#04255:0024
#0395a:64
#04352:54
#0525a:64
#05257:0024
#0535a:14
#0103a0:1424
#014320:1424
#0163a0:14
#016380:0034
#0173a0:34
#017380:0024
#018320:14
#018340:0034
#019320:34
#019340:0024
#020380:14
#0203a0:0024
#021340:14
#021320:0024
#0223a0:14
#022380:0024
#023320:14
#023340:00003424
#0253a0:14
#025380:0034240000000000
#025340:0014
#025320:0000000000342400
#027380:1434
#0273a0:00340024
#029320:00001424
#034380:16260000
#034320:00001626
#035380:16260000
#035320:00001626
#0363a0:14
#036370:0054
#0373a0:34
#037370:0054
#0383a0:34
#038370:0054
#0393a0:34
#039370:0024
#040320:14
#040350:0054
#041320:34
#041350:0054
#042320:34
#042350:0054
#043320:34
#043350:0024
#047380:1434
#0473a0:00340024
#0523a0:14
#052370:0054
#0533a0:24
