This file was generated by Ched 2.7.0.0.
#TITLE ""
#ARTIST ""
#DESIGNER ""
#DIFFICULTY 0
#PLAYLEVEL
#SONGID ""
#WAVE ""
#WAVEOFFSET 0
#JACKET ""
#REQUEST "ticks_per_beat 480"
#00002: 4
#BPM01: 135
#00008: 01
#TIL00: ""
#VOLUME: ""
#HISPEED 00
#MEASUREHS 00
#00112:00140000
#00118:00001414
#00114:0000000000140000
#0011a:24
#00214:1400001400000000
#00218:0014000014000000
#00312:14
#00318:00140000
#00314:0000001400000000
#0031a:14
#00512:14
#00519:0000003400000000
#0051a:0000000034340000
#0041a:00000014
#00413:0034000000000000
#00414:0000343400000000
#0071a:14
#00712:00140000
#00718:00001414
#00714:0000000000140014
#0081a:14
#00816:00140000
#00812:0014
#00912:00140000
#00918:0014
#00914:00000014
#0091a:24
#00910:41
#0101a:14
#01012:00140000
#01018:0014
#01014:00000014
#01112:00140014
#01118:0014
#0111a:24
#0121a:14
#01212:00140000
#01218:0014
#01214:00000014
#01312:00140000
#01318:0014
#01314:00000014
#0131a:24
#0141a:14
#01412:00140000
#01418:0014
#01414:00000014
#01512:00140000
#01518:0014
#01514:00000014
#0151a:24
#0161a:14
#01616:00140000
#01612:0014
#01718:14
#01714:0014
#0181a:14
#01816:00140000
#01812:0014
#02012:14
#02016:00140000
#0201a:0014
#01918:0014
#02112:14
#02118:00140000
#02114:0014
#0221a:14
#02214:00140000
#02218:0014
#02314:00000014
#02418:1414
#02414:00140000
#02514:14
#02514:14
#02518:0014
#02518:0014
#02510:41
#02612:14
#02612:14
#02616:00140000
#02616:00140000
#0261a:0014
#0261a:0014
#0281a:14
#0281a:14
#02816:00140000
#02816:00140000
#02812:0014
#02812:0014
#02714:0014
#02714:0014
#0291a:14
#0291a:14
#02914:00140000
#02914:00140000
#02918:0014
#02918:0014
#03012:14
#03012:14
#03018:00140000
#03018:00140000
#03014:0014
#03014:0014
#03112:1616
#03118:00160026
#03212:14
#03216:00140000
#0321a:0014
#0331a:00140000
#03314:00001414
#03318:0000000000140000
#03312:24
#03310:41
#03418:1400001400000000
#03414:0014000014000000
#0351a:14
#03514:00140000
#03518:0000001400000000
#03512:14
#0371a:14
#03713:0000003400000000
#03712:0000000034340000
#03612:00000014
#03619:0034000000000000
#03618:0000343400000000
#03912:14
#0391a:00140000
#03914:00001414
#03918:0000000000140014
#04012:14
#04016:00140000
#0401a:0014
#0451a:00140000
#04514:0014
#04518:00000014
#04512:24
#04612:14
#0461a:00140000
#04614:0014
#04618:00000014
#0471a:00140000
#04714:0014
#04718:00000014
#04712:24
#04812:14
#0481a:00140000
#0501a:1400001400000000
#05014:0014000014000000
#0501f:21
#05118:14
#05114:00140000
#0511a:0000001400000000
#05112:14
#05110:41
#0531a:14
#05212:00000014
#05514:14000014
#05518:0000140000140000
#05512:0014
#0551a:0000000000000014
#05612:14
#05616:00140000
#0561a:0014
#05614:00000014
#05812:1400001400000000
#05818:0014000014000000
#05914:14
#05918:00140000
#05912:0000001400000000
#0591a:14
#05910:41
#06112:14
#0601a:00000014
#06318:14000014
#06314:0000140000140000
#0631a:0014
#06312:0000000000000014
#0641a:14
#06416:00140000
#06412:0014
#0651a:14000014
#06512:0000140000000014
#06518:0014
#06514:0000000000140000
#0671a:00140000
#06714:0014
#06718:00000014
#06712:24
#06710:41
#06812:14
#0681a:00140000
#06814:0014
#06818:00000014
#0691a:00140014
#06914:0014
#06912:24
#07012:14
#0701a:00140000
#07014:0014
#07018:00000014
#0711a:00140000
#07114:0014
#07118:00000014
#07112:24
#07212:14
#0721a:00140000
#07214:0014
#07218:00000014
#0731a:00140000
#07314:0014
#07318:00000014
#07312:24
#07412:14000026
#07416:00140000
#0741a:0014
#05718:14001414
#05712:00140000
#05714:0000000000140000
#0411f:11
#04114:24
#04212:24
#0421a:24
#04312:24
#04314:00240000
#04318:0024
#0431a:00000024
#04414:2424
#04418:00240024
#00613:0034000000000000
#00612:0000343400000000
#03819:0034000000000000
#0381a:0000343400000000
#04912:0000343434340000
#07452:00000016
#0015a:14
#03352:14
#04952:00000016
#0665a:00000014
#003380:00001424
#004320:14
#004330:0034000000000000
#004340:0000343424000000
#005380:00140000
#005390:0000003400000000
#0053a0:0000000034342400
#006340:14
#006330:0034000000000000
#006320:0000343424000000
#032320:00000014
#033320:24
#035340:00001424
#0363a0:14
#036390:0034000000000000
#036380:0000343424000000
#037340:00140000
#037330:0000003400000000
#037320:0000000034342400
#038380:14
#038390:0034000000000000
#0383a0:0000343424000000
#048320:0000000000000000000000000000000014000000540000540054005400540000
#048330:00000000000000000054005454545400
#049320:34000034340034003400340026000000
#051340:0014
#051320:00000024
#0523a0:1424
#052390:0034003400000000
#052380:00340000
#053340:00140024
#053330:0000003400340000
#053320:0034
#054380:1424
#054390:0034003400000000
#0543a0:00340000
#059380:0014
#0593a0:00000024
#060320:1424
#060330:0034003400000000
#060340:00340000
#061380:00140024
#061390:0000003400340000
#0613a0:0034
#062340:1424
#062330:0034003400000000
#062320:00340000
#0663a0:14000024
