This file was generated by Ched 2.7.0.0.
#TITLE ""
#ARTIST ""
#DESIGNER ""
#DIFFICULTY 0
#PLAYLEVEL
#SONGID ""
#WAVE ""
#WAVEOFFSET 0
#JACKET ""
#REQUEST "ticks_per_beat 480"
#00002: 4
#BPM01: 192
#00008: 01
#TIL00: ""
#VOLUME: ""
#HISPEED 00
#MEASUREHS 00
#01112:14
#01110:41
#01218:14
#01314:14
#01912:14
#01910:41
#02012:14
#02118:14
#02218:14
#02314:14
#02414:14
#0251a:14
#0261a:14
#02712:14
#02710:41
#02818:14
#02914:14
#0301a:14
#03112:14
#03218:14
#03314:14
#0341a:14
#0341f:11
#04318:0016
#04312:26
#0431f:21
#04412:1616
#04410:41
#04518:16
#04512:0016
#04618:1616
#05112:1616
#05212:16
#05318:1616
#06612:14
#06618:0014
#06610:41
#06712:14
#08212:1414
#08210:41
#0681a:14
#06814:0014
#0691a:14
#0741a:14
#07414:0014
#0751a:14
#07612:14
#07618:0014
#07712:14
#08312:14
#0841a:1414
#0851a:14
#06218:26
#00512:34
#00412:34
#0091a:34
#0081a:34
#08812:36
#08712:36
#08953:0000000000000014
#000340:00000000000000000000001400000000
#003340:34
#004320:34
#005320:34
#006320:24
#007380:14
#0083a0:34
#0093a0:34
#0103a0:24
#0143a0:14
#014380:0000000000000034
#015380:0000003400000034
#016380:0000003400000000
#0163a0:0000000000000034
#0173a0:0000003400000034
#0183a0:0024
#035320:14
#036320:24
#0373a0:14
#0383a0:24
#039340:14
#040340:24
#041380:14
#042380:24
#047320:16
#048320:26
#049380:16
#050380:26
#054380:1600000000000036
#055370:0000003600000000
#055380:0000000000000036
#056370:0000003600000000
#056380:0000000000000036
#057380:0026
#058320:1600000000000036
#059330:0000003600000000
#059320:0000000000000036
#060330:0000003600000000
#060320:0000000000000036
#061320:0026
#062380:1600000000000036
#063370:0000003600000000
#063380:0000000000000036
#064370:0000003600000000
#064380:0000000000000036
#065380:0026
#070320:14
#071320:34
#072320:34
#073320:24
#0783a0:14
#0793a0:34
#0803a0:34
#0813a0:24
#086320:16360000
#087320:36
#088320:36
#089330:3400000000000024
