This file was generated by Ched 2.6.4.0.
#TITLE ""
#ARTIST ""
#DESIGNER ""
#DIFFICULTY 0
#PLAYLEVEL
#SONGID ""
#WAVE ""
#WAVEOFFSET 0
#JACKET ""
#REQUEST "ticks_per_beat 480"
#00002: 4
#BPM01: 128
#00008: 01
#TIL00: ""
#HISPEED 00
#MEASUREHS 00
#06114:00130000
#06116:0000001300000000
#06117:0013000013000000
#06112:0013000013000000
#0611b:2300001300001300
#06119:00130000
#06110:41
#06212:1300001300001300
#06219:00130000
#06217:0000001300000000
#06216:0013000013000000
#0621b:0013000013000000
#06214:00130000
#06419:0013000000000000
#0641b:00000000001300000000000023000000
#06418:0013
#06415:00000013
#06414:00000023000000000000000000000000
#06416:0000002300000000
#06412:2323
#06512:13131313
#0651b:13131300
#06516:0014001400000000
#0661b:13131313
#06616:0014001400000000
#06612:00131300
#06719:0013000000000000
#0671b:00000000001300000000000023000000
#06717:0013
#06716:0000002300001300
#06714:00000023000000000000000000001300
#06712:2323
#0631b:1300001300001300
#06314:00130000
#06316:0000001300000000
#06317:0013000013000000
#06312:0013000013000000
#06319:00130000
#06812:13000000000000000000002300000000
#06816:00000013000000002300000000002300
#0681b:00000023000000001300000000000000
#06817:23000000000023000000001300000000
#0531f:11
#0531b:00000000000000130000000013000000
#05318:0000000000130000
#05312:00001313
#05315:0000001300000013
#0491a:00120000
#04914:00121200
#0491c:12000012
#05012:12
#05018:0012000000000000
#05014:00120012
#0501a:0000001200000012
#05016:0012
#0501c:0000000000120000
#05118:12000012
#05114:12000012
#05116:00120000
#0511a:00121200
#05212:12000013
#05214:00000012000000001200000000000000
#05216:0000001200000000
#0521c:0000001200000000
#0521a:00000012000000001200000000000000
#0521b:00000013
#0541b:13130000
#05417:0013000013000000
#05412:13131300
#05416:0000001300001300
#05512:00000000000000130000000013000000
#05515:0000000000130000
#0551b:13001313
#05518:0000001300000013
#0561b:1313
#05616:1300001313000000
#05617:00000013000000000000000013000000
#05612:00000013000000000000000000000000
#05912:00131313
#0591b:00001313
#05916:0000001400140000
#05917:13
#06012:00001313
#0601b:00131313
#06016:0000001400140000
#06015:13
#0601f:21
#05712:13001313
#0571b:00000000000000130000000013000000
#05718:0000000000130000
#05715:0000001300000013
#0581b:13130000
#05817:0013000013000000
#05812:13131300
#05816:0000001300001300
#04012:1300000013000013
#04014:00000013000000000000000000000000
#04016:0000001300001300
#04017:13000000000000000013000000000000
#04019:0013000000000000
#0401b:00000000001300000000000000000000
#03616:0013000000000000
#03619:00000013000000000000000000000000
#03614:00000000001300000000000000000000
#03617:00000000000013000013000000000000
#03612:00001313
#03615:0000000000000013
#0361b:23
#0361b:23
#03610:41
#03717:0013000000000000
#03714:00000013000000000000000000000000
#03719:00000000001300000000000000000000
#03716:00000000000013000013000000000000
#0371b:13001313
#03718:0000000000000013
#03712:23
#03814:0013000000001300
#03817:00000013000000000000000000000000
#03816:00000000001300000000000000000000
#03819:0000001300000000
#03812:1300000013000013
#0381b:23000000000000000013000000000000
#03919:0013000000001300
#03916:00000013000000000000000000000000
#03917:00000000001300000000000000000000
#03914:0000001300000000
#0391b:1300000013000013
#03912:23000000000000000013000000000000
#04112:13000000000000000013000000000000
#04114:0013000000000000
#04116:00000000001300000000000000000000
#04117:13
#04119:00000013000000000000000013000000
#0411b:0000001313000013
#0421b:1300000013000013
#04219:00000013000000000000000000000000
#04217:0000001300001300
#04216:13000000000000000013000000000000
#04214:0013000000000000
#04212:00000000001300000000000000000000
#0431b:13000000000000000013000000000000
#04314:00000013000000000000000013000000
#04317:00000000001300000000000000000000
#04316:13
#04319:0013000000000000
#04312:0000001313000013
#02617:13000013
#02612:13000013
#02616:00130000
#0261b:00131300
#02716:1313
#02712:00000013000000000000000013000000
#02714:0000001300000000
#02719:0000001300000000
#02717:00000013000000000000000000000000
#0271b:00001313
#0281b:00000000000000130000000013000000
#02818:0000000000130000
#02812:00001313
#02815:0000001300000013
#02810:41
#0291b:13130000
#02917:0013000013000000
#02912:13131300
#02916:0000001300001300
#03012:00000000000000130000000013000000
#03015:0000000000130000
#0301b:13001313
#03018:0000001300000013
#0311b:1313
#03116:1300001313000000
#03117:00000013000000000000000013000000
#03112:00000013000000000000000000000000
#03412:00131313
#0341b:00001313
#03416:0000001400140000
#03417:13
#03512:00001313
#0351b:00131313
#03516:0000001400140000
#03515:13
#03212:13001313
#0321b:00000000000000130000000013000000
#03218:0000000000130000
#03215:0000001300000013
#0331b:13130000
#03317:0013000013000000
#03312:13131300
#03316:0000001300001300
#02012:00130013
#02017:00130000
#0201b:0013
#02016:13
#02010:41
#0211b:13130000
#02118:0013001300000000
#02115:00001313
#02112:0000000000130013
#0001c:12000012000012000000000000000000
#0001a:00000000000000000012000012000000
#00018:0000000000000012
#0011a:12000012000012000012000012000000
#0011c:0000000000000012
#00212:12000012000012000000000000000000
#00214:00000000000000000012000012000000
#00216:0000000000000012
#00314:12000012000012000000000000000000
#00312:00000000000000000012000012000000
#00316:0000000000000012
#00412:13001313
#0041b:1300001313001300
#00415:0000130000130000
#00418:0013000000000013
#00512:1313
#0051b:13130013
#00516:0013000000130000
#00517:0000001300000013
#0061b:0000130000130000
#00612:1300000013000013
#00616:0000001300000000
#00617:0013
#00615:00000013
#0071b:13000013
#00712:0013000000000000
#00717:0013000000130000
#00716:0000001300001300
#00818:0000130000130000
#0081b:13001313
#00815:0013000000000013
#00812:0000001313001300
#0091b:1313
#00912:13130013
#00917:0013000000130000
#00916:0000001300000013
#01017:1300000000131300
#01016:0000131300000000
#01112:13000013
#01116:0013001300130000
#01117:00131313
#0111b:0000001300000000
#01216:13
#01212:00131313
#0121b:00131313
#01215:0000001300000013
#01218:0000000000130000
#01210:41
#0131b:13131313
#01312:13131313
#01317:0013000000000000
#01316:0000001300140014
#01417:0013000000000000
#01416:0000001300140014
#0141b:13
#01512:13130013
#01516:0013001300000000
#0151b:00131300
#01519:0000000000130000
#01517:00000013
#01514:0000000000130000
#01616:13
#01612:00131313
#0161b:00131313
#01615:0000001300000013
#01618:0000000000130000
#0171b:13131313
#01712:13131313
#01717:0013000000000000
#01716:0000001300140014
#0181b:13130013
#01817:0013001300000000
#01812:13131313
#01816:0000000000130013
#0191b:1313
#01917:0013000000001300
#01912:00130013
#01916:0000001300000000
#0221b:13130013
#02216:00130000
#02212:1313
#02312:13130000
#02315:0013001300000000
#02318:00001313
#0231b:0000000000130013
#02412:13130013
#02417:00130000
#0241b:1313
#0451a:00120000
#04514:00121200
#0451c:00000012
#04516:12
#04510:41
#04612:12
#04618:0012000000000000
#04614:00120012
#0461a:0000001200000012
#04616:0012
#0461c:0000000000120000
#04714:00120000
#0471a:00121200
#04712:12000012
#0481c:12
#04816:0012000000000000
#0481a:00120012
#04814:0000001200000012
#04818:0012
#04812:0000000000120000
#0251b:13130000
#02518:0013001300000000
#02515:00001313
#02512:0000000000130013
#06912:23
#0691b:23
#06152:0063
#0615b:00000053
#0655b:0053
#06552:00000063
#06652:0063
#0665b:00000053
#0625b:0053
#06252:00000063
#06352:0063
#0635b:00000053
#06852:53
#06856:00000053000000000000000000000000
#0685b:0063
#06857:00000000000000000000006300000000
#06452:0013
#0645b:00000013
#06752:0013
#0675b:00000013
#06952:13
#0695b:13
#0495a:00520000
#04954:0062
#0495c:00000052
#05154:62
#05156:00620000
#0515a:0052
#05158:00000052
#05457:0053
#05456:00000063
#0565b:53
#05656:0063
#05657:00000053000000000000000053000000
#05952:0013
#0595b:00130053
#05957:53
#0605b:0013
#06055:63
#06052:00130063
#05252:00000053
#0525b:00000063
#0555b:13
#05552:13
#05752:13
#0575b:13
#05857:0053
#05856:00000063
#05355:13
#05358:13
#04052:13
#04054:00000013000000000000000000000000
#04056:0000001300000000
#04057:00000000000000000063000000000000
#03657:00000000000000000053000000000000
#03756:00000000000000000063000000000000
#0385b:00000000000000000053000000000000
#03952:00000000000000000063000000000000
#04152:00000000000000000063000000000000
#04157:13
#04159:00000013000000000000000000000000
#0415b:0000001300000000
#0425b:13
#04259:00000013000000000000000000000000
#04257:0000001300000000
#04256:00000000000000000053000000000000
#04354:00000013000000000000000000000000
#0435b:00000000000000000053000000000000
#04356:13
#04352:0000001300000000
#02652:63
#02656:00630000
#0265b:0053
#02657:00000053
#02957:0053
#02956:00000063
#0315b:53
#03156:0063
#03157:00000053000000000000000053000000
#03452:0013
#0345b:00130053
#03457:53
#0355b:0013
#03555:63
#03552:00130063
#02752:00000053
#0275b:00000063
#0305b:13
#03052:13
#03252:13
#0325b:13
#03357:0053
#03356:00000063
#02855:13
#02858:13
#02052:00530053
#0205b:1363
#00552:5353
#00556:0023000000230000
#0055b:00630063
#00557:0000002300000023
#00652:6300000000000023
#00657:0053
#0065b:0000000000230000
#00655:00000063
#00757:0053000000000000
#00756:0000006300005300
#0095b:6363
#00957:0023000000230000
#00952:00530053
#00956:0000002300000023
#01057:53000053
#01056:0000006300000000
#01152:53
#01156:0023000000000000
#0115b:0000006300000000
#01157:00002353
#0125b:13
#01352:13
#01552:63630000
#01556:0023002300000000
#01557:00000063
#0165b:13
#01752:13
#0185b:53530000
#01857:0023002300000000
#01852:00006363
#01856:0000000000230023
#0195b:6363
#01957:0023000000002300
#01952:00530000
#01956:0000002300000000
#0225b:00630063
#02252:1353
#02452:00530053
#0245b:1363
#0455a:00520000
#04554:0062
#0455c:00000052
#04754:00620000
#0475a:0052
#04752:00000062
#000340:14
#000350:0000000000000022
#001320:14
#001330:0000000000000022
#002380:14
#002390:0000000000000022
#0033a0:14
#0033b0:0000000000000022
#005320:13230000
#005360:0053000000000000
#0053b1:00132300
#005371:0000005300000000
#005320:00001323
#005360:0000000000530000
#0053b1:00000013
#005371:0000000000000053
#0063b1:23
#006320:13
#006360:00230000
#006370:0013
#0063b0:0000000000530000
#006380:00000023
#006351:00000013
#006321:0000000000000053
#007361:23
#007371:0013000000000000
#0073b1:0000002300000000
#007360:0000001300000000
#007320:0000000000230000
#007360:00000013
#008320:23
#0093b0:13230000
#009370:0053000000000000
#009321:00132300
#009361:0000005300000000
#0093b0:00001323
#009370:0000000000530000
#009321:00000013
#009361:0000000000000053
#010321:23
#010370:13
#0103b0:0000002300000000
#010361:0000001300000000
#010321:00000023
#010370:00000013
#0113b0:23
#011321:13230000
#011361:0053000000000000
#0113b1:0000001300230000
#011371:0053
#011371:00000013
#0123b1:23
#014321:13230000
#0143b0:00132300
#014321:00001424
#0143a0:00000014
#0153a0:24
#015321:13332300
#015361:0053005300000000
#015371:00000013
#0163b1:23
#0183b1:13332300
#018371:0053005300000000
#018320:00001333
#018360:0000000000530053
#019320:23
#0193b1:13230000
#019371:0053000000000000
#019320:00132300
#019360:0000005300000000
#0193b1:0013
#019371:00000053
#0203b1:23
#020321:00130000
#020361:0023
#0203b0:0013
#020370:00000023
#020321:00000013
#021351:33
#021321:0000002300000000
#0213b1:0013
#021381:0000000000000023
#0223b1:00130000
#022371:0023
#022320:0013
#022360:00000023
#0223b1:00000013
#023381:33
#0233b1:0000002300000000
#023321:0013
#023351:0000000000000023
#024321:00130000
#024361:0023
#0243b0:0013
#024370:00000023
#024321:00000013
#025351:33
#025321:0000002300000000
#0253b1:0013
#025381:0000000000000023
#026321:1323
#026361:00330000
#0263b0:0013
#026370:00000033
#0273b0:23
#027320:00000013
#028350:23
#0273b1:00000013
#028381:23
#029371:0013
#0293b1:00000023
#029360:00000013
#030320:23
#0313b0:1300002300000000
#031370:00000033000000000000000000000000
#031360:0013
#031320:00000023
#031371:00000013
#0323b1:23
#033371:0013
#0333b1:00000023
#033360:00000013
#034320:23
#034371:13
#0343b1:00230000
#0343b1:00000013
#035381:23
#035350:13
#035320:00230000
#035320:00000013
#036360:23
#036370:00000000000000000013000000000000
#0363b0:0000000000000023
#037360:00000000000000000013000000000000
#037320:0000000000000023
#0383b0:00000000000000000013000000000000
#038370:0000000000000023
#039320:00000000000000000013000000000000
#039360:0000000000000023
#040370:00000000000000000013000000000000
#0403b0:0000000000000023
#041320:00000000000000000013000000000000
#041360:0000000000000023
#042360:00000000000000000013000000000000
#042320:0000000000000023
#0433b0:00000000000000000013000000000000
#043370:0000000000000023
#0453a0:00120000
#045380:0022
#045341:0012
#045361:00000022
#0453c0:00000012
#0463a0:22
#047340:00120000
#047360:0022
#0473a1:0012
#047381:00000022
#047320:00000012
#048340:22
#0493a0:00120000
#049380:0022
#049341:0012
#049361:00000022
#0493c0:00000012
#0503a0:22
#051340:1222
#051360:00320000
#0513a1:0012
#051381:00000032
#0523a1:22
#052321:00000013
#053351:23
#0523b0:00000013
#053380:23
#054370:0013
#0543b0:00000023
#054361:00000013
#055321:23
#0563b1:1300002300000000
#056371:00000033000000000000000000000000
#056361:0013
#056321:00000023
#056370:00000013
#0573b0:23
#058370:0013
#0583b0:00000023
#058361:00000013
#059321:23
#059370:13
#0593b0:00230000
#0593b0:00000013
#060380:23
#060351:13
#060321:00230000
#060321:00000013
#061361:23
#061321:0013
#061361:00000023
#0613b0:00000013
#062370:23
#0623b0:0013
#062370:00000023
#062321:00000013
#063361:23
#063321:0013
#063361:00000023
#0633b0:00000013
#064370:23
#0653b0:0013
#065370:00000023
#065321:00000013
#066361:23
#066321:0013
#066361:00000023
#0663b0:00000013
#067370:23
#068320:1300002300000000
#068360:00000033000000000000000000000000
#0683b0:0000000013000023
#068370:00000000000000000000003300000000
