This file was generated by Ched 2.6.4.0.
#TITLE ""
#ARTIST ""
#DESIGNER ""
#DIFFICULTY 0
#PLAYLEVEL
#SONGID ""
#WAVE ""
#WAVEOFFSET 0
#JACKET ""
#REQUEST "ticks_per_beat 480"
#00002: 4
#BPM01: 128
#00008: 01
#TIL00: ""
#HISPEED 00
#MEASUREHS 00
#0531f:11
#0531b:0000000000130000
#05315:00000013
#05318:0000001300000013
#05312:0013
#0541b:0013000000000000
#05415:00130013
#05418:0000001300000000
#05412:1313
#05515:0013
#0551b:0000000000130000
#05512:00000013
#05518:0000001300000013
#05612:13
#05618:00000013
#0561b:0013
#05614:00000033000000000000000000000000
#05915:00130013
#05918:0000001300000000
#05912:0013
#0591b:0000000000130000
#06116:00140000
#0611a:0000001400000000
#06112:0014000000000000
#0611b:23
#06110:41
#06212:1400001400000000
#06216:00140000
#0621a:0014000000000000
#06512:13
#06518:0013000000000000
#06515:00130000
#0651b:0000001300000000
#05212:00000013
#0521a:00000033000000000000000000000000
#05219:0000003300000000
#0571b:0013
#05712:0000000000130000
#05718:00000013
#05715:0000001300000013
#0581b:1313
#05815:0013000000000000
#05812:0000001300000000
#05818:00130013
#04912:00130000
#04915:0013
#06018:00130013
#06015:0000001300000000
#0601b:0013
#06012:0000000000130000
#0601f:21
#0631a:1400001400000000
#06316:00140000
#06312:0014000000000000
#0661b:13
#06615:0013000000000000
#06618:00130000
#06612:0000001300000000
#06815:00000000000013000000001300000000
#06818:00000013000000000000000000001300
#0681b:23
#06812:0023
#0401a:14
#04016:00000014000000000000000000000000
#04012:0000001400000000
#04018:00000034
#03615:00000013000000000000000013000000
#03618:0000001300000013
#0361b:23000000000000000013000000000000
#03612:23
#03610:41
#03718:00000013000000000000000013000000
#03715:0000001300000013
#03712:23000000000000000013000000000000
#0371b:23
#03815:00000013000000000000000013000000
#03818:0000001300000013
#0381b:23000000000000000013000000000000
#03812:23
#03918:00000013000000000000000013000000
#03915:0000001300000013
#03912:23000000000000000013000000000000
#0391b:23
#04112:14
#04116:00000014000000000000000000000000
#0411a:0000001400000000
#04114:00000034
#0421a:14
#04216:00000014000000000000000000000000
#04212:0000001400000000
#04218:00000034
#04312:14
#04316:00000014000000000000000000000000
#0431a:0000001400000000
#04314:00000034
#02812:0000000000130000
#02818:00000013
#02815:0000001300000013
#0281b:0013
#02810:41
#02912:0013000000000000
#02918:00130013
#02915:0000001300000000
#0291b:1313
#03018:0013
#03012:0000000000130000
#0301b:00000013
#03015:0000001300000013
#0311b:13
#03115:00000013
#03112:0013
#03119:00000033000000000000000000000000
#03418:00130013
#03415:0000001300000000
#0341b:0013
#03412:0000000000130000
#0271b:00000013
#02713:00000033000000000000000000000000
#02714:0000003300000000
#03212:0013
#0321b:0000000000130000
#03215:00000013
#03218:0000001300000013
#03312:1313
#03318:0013000000000000
#0331b:0000001300000000
#03315:00130013
#03515:00130013
#03518:0000001300000000
#03512:0013
#0351b:0000000000130000
#02112:1313
#02115:00130013
#0211b:0013000000130000
#02118:0000001300000013
#02012:00130000
#02015:0013
#0201b:13
#02010:41
#00412:1313
#00415:00130013
#00418:0013000000000013
#0041b:0000001300130000
#00618:0013
#00612:0000001300000000
#00615:00000013
#0071b:13
#00712:0013000000000000
#00715:00000013
#0001b:13000013000013000000000000000000
#00015:00000000000000000013000013000000
#00018:0000000000000013
#00112:13000013000013000013000013000000
#00118:0000000000000013
#00215:13000013000013000000000000000000
#00218:00000000000000000013000013000000
#00212:0000000000000013
#0031b:13000013000013000000000000000000
#00315:00000000000000000013000013000000
#00318:0000000000000013
#0081b:1313
#00818:00130013
#00815:0013000000000013
#00812:0000001300130000
#01112:13
#01118:00130000
#01115:0000001300000000
#0111b:1300000000130000
#01015:13
#01012:0000001300000000
#0101b:13
#01018:0000001300000000
#0121b:00130013
#01215:0000001300000013
#01218:0013
#01212:0000000000130000
#01210:41
#01318:0013001300000013
#01312:00130013
#01315:0013
#0131b:0000000000130000
#01415:0013000000001300
#0141b:00131300
#01412:0000001300000013
#01418:0000000000130000
#0151a:14141400
#01516:0000000000140000
#01512:00000014
#01612:00130013
#01618:0000001300000013
#01615:0013
#0161b:1300000000130000
#01715:0013001300000013
#0171b:00130013
#01718:0013
#01712:0000000000130000
#0231b:1313
#02318:00130013
#02312:0013000000130000
#02315:0000001300000013
#0221b:00130000
#02218:0013
#02212:13
#02512:1313
#02515:00130013
#0251b:0013000000130000
#02518:0000001300000013
#02412:00130000
#02415:0013
#0241b:13
#0461b:13130000
#04615:0013001300000000
#04618:00001313
#04612:0000000000130013
#04512:00130000
#04515:0013
#04510:41
#0471b:00130000
#04718:0013
#04812:13130000
#04818:0013001300000000
#04815:00001313
#0481b:0000000000130013
#0501b:13130000
#05015:0013001300000000
#05018:00001313
#05012:0000000000130013
#06412:2424
#0641a:0000002400002400
#06416:00000024000000000000000000000000
#06912:23
#0691b:23
#0671a:2424
#06712:0000002400002400
#06716:00000024000000000000000000000000
#05652:63
#05658:00000063
#0565b:0063
#05955:00000063
#0595b:13
#05252:00000053
#04952:00630000
#04955:0063
#05455:00000053
#05452:0053
#05858:00000063
#0585b:0063
#06058:00000053
#06052:13
#06452:0014
#0645a:00000014
#06952:13
#0695b:13
#0675a:0014
#06752:00000014
#05355:13
#05552:13
#0575b:13
#0615b:13
#0405a:14
#04152:14
#0425a:14
#04352:14
#0315b:53
#03155:00000053
#03152:0053
#03458:00000053
#03452:13
#0275b:00000063
#02958:00000063
#0295b:0063
#03355:00000053
#03352:0053
#0355b:13
#02858:13
#0305b:13
#03252:13
#02052:00630000
#02055:0063
#0205b:13
#01055:53
#01052:0000005300000000
#0105b:53
#01058:0000005300000000
#01255:13
#0165b:13
#0225b:00530000
#02258:0053
#02252:13
#02452:00630000
#02455:0063
#0245b:13
#04552:00630000
#04555:0063
#0475b:00530000
#04758:0053
#005380:13
#0053b0:00230000
#005321:13
#005351:00230000
#005351:0013
#005321:00000023
#0053b0:0013
#005380:00000023
#006380:13
#0063b0:00230000
#006321:13
#006351:00230000
#007381:0000001300000000
#0073b1:0000000000230000
#009351:13
#009321:00230000
#0093b0:13
#009380:00230000
#009380:0013
#0093b0:00000023
#009321:0013
#009351:00000023
#010351:13000023
#010321:0000003300000000
#0103b0:13000023
#010380:0000003300000000
#011320:00000013
#012350:23
#018380:13000033
#0183b0:00333300
#019380:3333
#0193b0:00330023
#018321:13000033
#018351:00333300
#019321:3333
#019351:00330023
#020321:00130023
#020351:0033
#0223b1:00130023
#022381:0033
#024321:00130023
#024351:0033
#026321:13
#026351:00230000
#0263b1:0013
#026381:00000023
#027321:13
#027331:00000033000000000000000000000000
#027341:0000003300000000
#027351:0023
#0273b1:00000013
#028381:23
#0293b1:0013
#029381:00000033
#0303b1:23
#0313b1:13
#031391:00000033000000000000000000000000
#031381:0000002300000000
#031321:0013
#031351:00000033
#032321:23
#033321:0013
#033351:00000033
#034321:23
#034381:00000013
#0353b1:23
#0403a1:00000000000000000014000000000000
#040381:00000034
#040361:0000000000000024
#041321:00000000000000000014000000000000
#041341:00000034
#041361:0000000000000024
#0423a1:00000000000000000014000000000000
#042381:00000034
#042361:0000000000000024
#043321:00000000000000000014000000000000
#043341:00000034
#043361:0000000000000024
#045321:00130023
#045351:0033
#0473b1:00130023
#047381:0033
#049321:00130023
#049351:0033
#0513b1:13
#051381:00230000
#051321:0013
#051351:00000023
#0523b1:13
#0523a1:00000033000000000000000000000000
#052391:0000003300000000
#052381:0023
#052321:00000013
#053351:23
#054321:0013
#054351:00000033
#055321:23
#056321:13
#056341:00000033000000000000000000000000
#056351:0000002300000000
#0563b1:0013
#056381:00000033
#0573b1:23
#0583b1:0013
#058381:00000033
#0593b1:23
#059351:00000013
#060321:23
#060381:00000013
#0613b1:23
#061381:0013
#0613b1:00000023
#061320:0013
#061350:00000023
#062350:0013
#062320:00000023
#0623b1:0013
#062381:00000023
#063381:0013
#0633b1:00000023
#063320:0013
#063350:00000023
#065320:0013
#065350:00000023
#065381:0013
#0653b1:00000023
#0663b1:0013
#066381:00000023
#066350:0013
#066320:00000023
