This file was generated by Ched 2.6.4.0.
#TITLE ""
#ARTIST ""
#DESIGNER ""
#DIFFICULTY 0
#PLAYLEVEL
#SONGID ""
#WAVE ""
#WAVEOFFSET 0
#JACKET ""
#REQUEST "ticks_per_beat 480"
#00002: 4
#BPM01: 128
#00008: 01
#TIL00: ""
#HISPEED 00
#MEASUREHS 00
#0531f:11
#05319:0000001300000013
#0531b:0013
#05317:00000013
#05312:00000013
#05314:0000000000130000
#05316:0013
#05313:00000000000000130000000000000000
#0661b:13130013
#06617:0000000000000013
#06612:00131300
#06616:0000001414130000
#06618:00000013000000000000000000000000
#06615:0013000000000000
#06512:13130013
#06516:0000001414000013
#0651b:13131300
#06517:0000000000130000
#06515:00000013000000000000000000000000
#06518:0013000000000000
#06312:1300001300001300
#06316:0014141414000013
#0631b:00000013000000001300000000000000
#06317:0000000000130000
#0621b:1300001300001300
#06217:0000000000000013
#06212:00000013000000001300000000000000
#06216:0014141414130000
#06112:2300001300001300
#06116:0014141414000013
#0611b:23000013000000001300000000000000
#06117:0000000000130000
#06110:41
#05712:13000013
#05719:0000001300000013
#0571b:0013
#05717:00000013
#05714:0000000000130000
#05716:0013
#05713:00000000000000130000000000000000
#05617:0000001300001300
#0561b:13131300
#05616:0013
#05612:1300001300000000
#05615:00000013000000000000000000000000
#05618:0013000000000000
#0551b:13000013
#05514:0000001300000013
#05512:0013
#05516:00000013
#05519:0000000000130000
#05517:0013
#0551a:00000000000000130000000000000000
#05416:00130013
#05412:1313
#05417:0013
#05419:0000001300000000
#0541b:13130000
#05414:0013000000000000
#0521c:0012
#05216:0012
#0521b:00000013
#05212:1200001200001300
#05218:0012001200000000
#0521a:00120000
#05214:00000012000000000000000000000000
#0681b:00000000000023000000000000131300
#06819:00000023000000000000131300000000
#06817:2313
#06816:00000000001313000000000000002300
#06814:00001313000000000000002300000000
#06812:1323
#06714:00000023000000000000000000001300
#06716:0000002300001300
#06717:0013
#0671b:00000000001313000000000023000000
#06719:00001313000000000000000000000000
#06712:2323
#06417:0000002300001300
#06416:0013
#06412:00000000001313000000000023000000
#06414:00001313000000000000000000000000
#0641b:2323
#06419:00000023000000000000000000000000
#06016:0013001300001300
#06012:13
#06017:0000130000130000
#0601b:00000013
#06019:0013
#06014:0013
#0601f:21
#0591b:13
#05916:0000130000130000
#05917:0013001300001300
#05912:00000013
#05914:0013
#05919:0013
#05816:00130013
#05812:1313
#05817:0013
#05819:0000001300000000
#0581b:13130000
#05814:0013000000000000
#05118:12000012
#05116:0012
#0511c:00120000
#05112:12
#04912:1212
#04914:00120000
#0491c:00120012
#0491a:12
#03615:0013000000130000
#03618:00000013000000000013000000000000
#03612:2300130013000013
#03616:0000001300001300
#03617:0000000000000013
#0361b:23232323
#03610:41
#03715:0013000000130000
#03718:00000013000000000013000000000000
#03712:1300130013000013
#03716:0000001300001300
#03717:0000000000000013
#0371b:23232323
#03818:0013000000130000
#03815:00000013000000000013000000000000
#0381b:1300130013000013
#03817:0000001300001300
#03816:0000000000000013
#03812:23232323
#03918:0013000000130000
#03915:00000013000000000013000000000000
#0391b:1300130013000013
#03917:0000001300001300
#03916:0000000000000013
#03912:23232323
#04012:13001313
#04014:00000013000000000000000000000000
#04016:0000001300130013
#04017:13001313
#04019:00001313000000000000000000000000
#0401b:00000000001313000000000000001300
#0401a:00000000000000000013000000000000
#04112:1300000013001313
#04114:00001313000000000000000000000000
#04116:00000000001313000000130000000000
#04117:13001313
#04119:00000013000000000000000000000000
#0411b:0000001300000013
#0411a:00000000000000000013000000000000
#0421b:13001313
#04219:00000013000000000000000000000000
#04217:0000001300130013
#04216:13001313
#04214:00001313000000000000000000000000
#04212:00000000001313000000000000001300
#04213:00000000000000000013000000000000
#0431b:13001313
#04319:00001313000000000000000000000000
#04317:00000000001313000000130000001300
#04316:13001313
#04314:00000013000000000000000000000000
#04312:0000001300000013
#04313:00000000000000000013000000000000
#0201b:00130013
#02016:00130000
#02012:0013
#02010:41
#02112:13
#02113:00130000
#02115:0013000000000000
#02116:0000001300000000
#02117:0013
#02118:00000013
#0211a:0000000000130000
#0211b:0000000000000013
#0001c:12000012000012000000000000000000
#0001a:00000000000000000012000012000000
#00018:0000000000000012
#0011a:12000012000012000012000012000000
#0011c:0000000000000012
#00216:12000012000012000000000000000000
#00214:00000000000000000012000012000000
#00212:0000000000000012
#00314:12000012000012000000000000001200
#00316:00000000000000000012000012000000
#00412:1300130013000013
#0041b:1300001300001300
#00418:00000013000000000013000000000000
#00415:0013000000130000
#00416:0000001300001300
#00417:0000000000000013
#0051b:1313
#00516:1300001300130000
#00517:0013000000000013
#00512:00130013
#00612:0000130013000013
#0061b:1300001300130000
#00616:0000001300130000
#00617:0000000013000013
#00615:00000013
#0071b:1300130000130000
#00712:0013000013001300
#00717:0013000000001300
#00715:0000001300000000
#00812:1300001300001300
#0081b:0000130013000013
#00815:00000013000000000013000000000000
#00818:0013000000130000
#00817:0000001300001300
#00816:0000000000000013
#00912:1313
#00917:1300001300130000
#00916:0013000000000013
#0091b:00130013
#01012:1300001300000013
#01018:0013000000130000
#01015:00000013000000000013000000000000
#0101b:00131313
#01017:0000001300000013
#01016:00000013
#01112:13131313
#0111b:1300001300000000
#01115:0013000000130000
#01118:00000013000000000013000000000000
#01116:0000001300000000
#01117:00000013
#01119:0000000000000013
#0321b:13001313
#03218:0000001300000000
#03212:00001313
#03216:0000000000000013
#03217:0000000000130000
#03215:00000000000000130000000000000000
#03116:0000001300001300
#03112:13131300
#03117:0013
#0311b:1300001300000000
#03118:00000013000000000000000000000000
#03115:0013000000000000
#03012:13001313
#03018:00000000000000130000000000000000
#0301b:00001313
#03017:0000000000000013
#03016:0000000000130000
#03015:0000001300000000
#02917:00130013
#0291b:1313
#02916:0013
#02914:0000001300000000
#02912:13130000
#02919:0013000000000000
#02712:00131313
#02717:0013
#0271b:1300001300001300
#02716:0000001300000000
#02718:00000013000000000000000000000000
#02715:0013000000000000
#03517:0013001300001300
#0351b:13
#03516:0000130000130000
#03512:00000013
#03514:0013
#03519:0013
#03412:13
#03417:0000130000130000
#03416:0013001300001300
#0341b:00000013
#03419:0013
#03414:0013
#03317:00130013
#0331b:1313
#03316:0013
#03314:0000001300000000
#03312:13130000
#03319:0013000000000000
#02815:00000000000000130000000000000000
#02812:00001313
#02816:0000000000000013
#0281b:00001313
#02817:0000000000130000
#02818:0000001300000000
#02810:41
#0221b:1313
#02212:13130013
#02217:00130000
#0231b:13
#0231a:00130000
#02318:0013000000000000
#02317:0000001300000000
#02316:0013
#02315:00000013
#02313:0000000000130000
#02312:0000000000000013
#02412:1313
#0241b:13130013
#02416:00130000
#02512:13
#02513:00130000
#02515:0013000000000000
#02516:0000001300000000
#02517:0013
#02518:00000013
#0251a:0000000000130000
#0251b:0000000000000013
#0261b:1313
#02612:13130013
#02617:0013000000130000
#02616:0000001300000013
#01216:1300000023000013
#01219:0000001300002300
#0121b:1300000013000023
#01212:0000230000130000
#01214:0000002300001300
#01217:0000130000230000
#01210:41
#01314:0013001300002300
#01312:1300000013000023
#0131b:0000230000130000
#01319:0023002300001300
#01317:1300000023000013
#01316:0000130000230000
#0141b:13131313
#01412:13131313
#01415:0013000000000000
#01418:0000001300000000
#01416:0000000000130000
#01417:0000000000000013
#0151b:13130013
#01517:0013001300000000
#01512:13131300
#01514:0000000000130000
#01516:00000013
#01519:0000000000130000
#01812:13130013
#01816:0013001300000000
#0181b:13131313
#01817:0000000000130013
#01912:1313
#01916:0013000000001300
#0191b:00130013
#01917:0000001300000000
#0451c:00120012
#04512:00121200
#0451a:12
#04514:12
#04510:41
#04716:00120012
#04718:1212
#0471a:00120000
#04714:12
#01614:0000001300002300
#01612:0000000013000023
#0161b:0000230000130000
#01619:0000002300001300
#01617:0000000023000013
#01616:0000130000230000
#01719:0013001300002300
#0171b:1300000013000023
#01712:0000230000130000
#01714:0023002300001300
#01716:1300000023000013
#01717:0000130000230000
#04612:12
#04615:0012000000000000
#04613:00120000
#04616:0000001200000000
#04618:0012
#0461b:0000000000120000
#04619:00000012
#0461c:0000000000000012
#04818:12
#0481b:0012000000000000
#04819:00120000
#0481c:0000001200000000
#04812:0012
#04815:0000000000120000
#04813:00000012
#04816:0000000000000012
#05012:12
#05015:0012000000000000
#05013:00120000
#05016:0000001200000000
#05018:0012
#0501b:0000000000120000
#05019:00000012
#0501c:0000000000000012
#0691b:23
#06912:23
#0665b:00000053
#06657:0000000000000023
#06652:0063
#06656:0000000000230000
#06552:00000063
#06556:0000000000000023
#0655b:0053
#06557:0000000000230000
#06352:00000063
#06356:0000000000000023
#0635b:0053
#06357:0000000000230000
#0625b:00000053
#06257:0000000000000023
#06252:0063
#06256:0000000000230000
#06152:13000063
#06156:0000000000000023
#0615b:1353
#06157:0000000000230000
#05752:13
#0575b:13
#05657:00000053
#05656:0063
#0555b:13
#05552:13
#05456:00000063
#05457:0053
#0525b:00000063
#05252:00000053
#06056:0023000000006300
#06052:63130000
#06059:0013
#0595b:53130000
#05954:0013
#05957:0023000000005300
#05856:00000063
#05857:0053
#05158:00000062
#05156:0052
#0515c:00520000
#05152:62
#04952:0062
#0495c:00520052
#0695b:13
#06952:13
#0675b:00000013
#06752:0013
#06452:00000013
#0645b:0013
#05358:13
#05355:13
#04052:13
#04054:00000013000000000000000000000000
#04056:0000001300000000
#04157:13
#04159:00000013000000000000000000000000
#0415b:0000001300000000
#0425b:13
#04259:00000013000000000000000000000000
#04257:0000001300000000
#04356:13
#04354:00000013000000000000000000000000
#04352:0000001300000000
#0205b:00630063
#02052:1353
#02057:13
#0055b:6363
#00557:0023000000000023
#00552:00530053
#00556:0000002300230000
#0065b:5300000000230000
#00657:0053
#00655:00000063
#00652:0000000000000023
#00757:0053000000005300
#0075b:00230000
#00755:0000006300000000
#00752:0023
#00852:13
#0085b:13
#00952:5353
#00956:0023000000000023
#0095b:00630063
#00957:0000002300230000
#0325b:13
#03252:13
#03156:00000063
#03157:0053
#03052:13
#0305b:13
#02957:00000053
#02956:0063
#02752:00000053
#0275b:00000063
#03557:0023000000005300
#0355b:53130000
#03554:0013
#03452:63130000
#03459:0013
#03456:0023000000006300
#03357:00000053
#03356:0063
#03652:13
#0365b:13
#02855:13
#02858:13
#0225b:1363
#02252:13530053
#02452:1353
#0245b:13630063
#0265b:6363
#02657:0023000000230000
#02652:00530053
#02656:0000002300000023
#0155b:53530053
#01557:0023002300000000
#01556:00000053
#01256:13
#0125b:13
#01352:13
#01357:13
#01652:13
#01657:13
#01852:63630000
#01856:0023002300000000
#0185b:00005353
#01857:0000000000230023
#01952:5353
#01956:0023000000002300
#0195b:00630023
#01957:0000002300000000
#0455c:00520052
#04552:0062
#04756:00620062
#04758:0052
#00452:13
#0045b:13
#01756:13
#0175b:13
#000320:12000022000000000000000000000000
#000320:00000000000012000022000000000000
#000340:0000000000001222
#001360:12000022000000000000000000000000
#001360:00000000000012000022000000000000
#001340:0000000000001222
#002380:12000022000000000000000000000000
#002380:00000000000012000022000000000000
#0023a0:0000000000001222
#0033c0:12000022000000000000000000000000
#0033c0:00000000000012000022000000000000
#0033a0:0000000000001222
#0053b0:13230000
#005370:0053000000000000
#005321:00132300
#005361:0000005300000000
#0053b0:00001323
#005360:0000000000530000
#005321:00000013
#005371:0000000000000053
#006321:23
#0063b0:13
#006370:00230000
#006370:0013
#0063b0:0000000000530000
#006380:00000023
#006351:00000013
#006321:0000000000000053
#007361:23
#007371:0013000000000000
#0073b1:00530000
#007381:0000002300000000
#007350:0000001300000000
#007320:0053
#007360:0000000000230000
#007370:00000013
#0083b0:23
#009320:13230000
#009360:0053000000000000
#0093b1:00132300
#009371:0000005300000000
#009320:00001323
#009370:0000000000530000
#0093b1:00000013
#009361:0000000000000053
#0103b1:23
#0153b1:13332300
#015371:0053005300000000
#015361:00000013
#016321:23
#0153b0:00000013
#016370:23
#018320:13332300
#018360:0053005300000000
#0183b1:00001333
#018371:0000000000530053
#0193b1:23
#019320:13230000
#019360:0053000000000000
#0193b1:00132300
#019371:0000005300000000
#019320:0013
#019360:00000053
#020320:23
#0193b1:00000013
#020371:23
#0203b1:00130000
#020371:0023
#020320:0013
#020360:00000023
#0203b1:00000013
#021371:33
#0213a1:0033000000000000
#021381:00330000
#0213b1:0000002300000000
#021321:0013
#021351:0000000000330000
#021331:00000033
#021361:0000000000000023
#022321:00130000
#022361:0023
#0223b0:0013
#022370:00000023
#022321:00000013
#023361:33
#023331:0033000000000000
#023351:00330000
#023321:0000002300000000
#0233b1:0013
#023381:0000000000330000
#0233a1:00000033
#023371:0000000000000023
#0243b1:00130000
#024371:0023
#024320:0013
#024360:00000023
#0243b1:00000013
#025371:33
#0253a1:0033000000000000
#025381:00330000
#0253b1:0000002300000000
#025321:0013
#025351:0000000000330000
#025331:00000033
#025361:0000000000000023
#0263b1:13230000
#026371:0053000000000000
#026320:00132300
#026360:0000005300000000
#0263b1:00001323
#026371:0000000000530000
#026320:00000013
#026360:0000000000000053
#027320:23
#027320:00000013
#028350:23
#0273b1:00000013
#028381:23
#029361:0013
#029321:00000023
#029370:00000013
#0303b0:23
#031370:0013
#0313b0:00000023
#031361:00000013
#032321:23
#033361:0013
#033321:00000023
#033370:00000013
#0343b0:23
#034321:13230000
#034361:0053000000000000
#034361:00000013
#035321:23
#0353b0:13230000
#035370:0053000000000000
#035370:00000013
#0363b0:23
#0453c0:00120000
#045380:0022
#045321:0012
#045361:00000022
#0453c0:00000012
#046380:32
#0463b0:0032000000000000
#046390:00320000
#0463c0:0000002200000000
#046320:0012
#046350:0000000000320000
#046330:00000032
#046360:0000000000000022
#047360:00120000
#047320:0022
#047381:0012
#0473c1:00000022
#047360:00000012
#048320:32
#048350:0032000000000000
#048330:00320000
#048360:0000002200000000
#048380:0012
#0483b0:0000000000320000
#048390:00000032
#0483c0:0000000000000022
#0493c0:00120000
#049380:0022
#049321:0012
#049361:00000022
#0493c0:00000012
#050380:32
#0503b0:0032000000000000
#050390:00320000
#0503c0:0000002200000000
#050320:0012
#050350:0000000000320000
#050330:00000032
#050360:0000000000000022
#051320:12
#051360:00220000
#0513c1:00120000
#051381:0022
#051360:0012
#051320:00000022
#051381:00000012
#0523c1:22
#0523b1:00000013
#053381:23
#052320:00000013
#053350:23
#054370:0013
#0543b0:00000023
#054361:00000013
#055321:23
#056361:0013
#056321:00000023
#056370:00000013
#0573b0:23
#058370:0013
#0583b0:00000023
#058361:00000013
#059321:23
#0593b0:13230000
#059370:0053000000000000
#059370:00000013
#0603b0:23
#060321:13230000
#060361:0053000000000000
#060361:00000013
#061321:23
#0613b1:00001323
#061371:0000000000530000
#061320:00000013
#061360:0000000000000053
#062320:23
#062320:00001323
#062360:0000000000530000
#0623b1:00000013
#062371:0000000000000053
#0633b1:23
#0633b1:00001323
#063371:0000000000530000
#063320:00000013
#063360:0000000000000053
#064320:23
#0653b0:00001323
#065370:0000000000530000
#065321:00000013
#065361:0000000000000053
#066321:23
#066321:00001323
#066361:0000000000530000
#0663b0:00000013
#066370:0000000000000053
#0673b0:23
