This file was generated by Ched 2.6.4.0.
#TITLE ""
#ARTIST ""
#DESIGNER ""
#DIFFICULTY 0
#PLAYLEVEL
#SONGID ""
#WAVE ""
#WAVEOFFSET 0
#JACKET ""
#REQUEST "ticks_per_beat 480"
#00002: 4
#BPM01: 128
#00008: 01
#TIL00: ""
#HISPEED 00
#MEASUREHS 00
#0531f:11
#0531a:14
#05314:0014
#05418:14
#05412:00140000
#0541a:0014
#05512:14
#05518:0014
#05614:14
#0561a:00140000
#05612:0014
#0571a:14
#05714:0014
#05818:14
#05812:00140000
#0581a:0014
#06118:00140000
#06112:24
#06110:41
#06214:00140000
#0621a:14
#06314:14
#0631a:00140000
#06418:14
#06412:00140000
#06512:14
#06516:00140000
#0661a:14
#06616:00140000
#06712:14
#06716:00140000
#0681a:14
#06816:00140000
#03614:00140000
#03618:24
#03610:41
#03718:00140000
#03714:14
#03812:00140000
#0381a:14
#0391a:00140000
#03912:14
#04018:14
#04012:00140000
#04114:14
#0411a:00140000
#04218:14
#04212:00140000
#04314:14
#0431a:00140000
#02812:14
#02818:0014
#02810:41
#02914:14
#0291a:00140000
#02912:0014
#0301a:14
#03014:0014
#03118:14
#03112:00140000
#0311a:0014
#03212:14
#03218:0014
#03314:14
#0331a:00140000
#03312:0014
#0341a:14
#03414:00140000
#0041a:14
#00414:00140000
#00418:0014
#00412:00000014
#00614:0014
#00618:00000014
#00712:14
#00718:00140000
#00714:0014
#0071a:00000014
#00812:14
#00818:00140000
#00814:0014
#0081a:00000014
#0111a:14
#01114:00140000
#01118:0014
#01112:00000014
#0121a:00001414
#01210:41
#01312:00001414
#0141a:14
#01412:00140000
#01418:0014
#01414:00000014
#0151a:14140000
#01512:00001414
#01618:00001414
#01714:00001414
#0181a:14
#01812:00140000
#01818:0014
#01814:00000014
#0191a:14
#01912:00140000
#03512:14
#03518:00140000
#05912:14
#05918:00140000
#0601a:14
#06014:00140000
#0601f:21
#0691a:24
#04919:00340000
#0491a:0034
#05013:0034343400000000
#05012:0000000034340000
#05119:00340000
#0511a:0034
#05212:00000034000034003400000000000000
#02613:00340000
#02612:0034
#0271a:00000034000034003400000000000000
#02118:0000000034340000
#02119:0034343400000000
#02014:0034
#02013:00340000
#02010:41
#00018:00000034000034000034000000000000
#00114:00000034000034000034000000000000
#00218:00000034000034000034000000000000
#00314:00000034000034000034000000000000
#02318:0000000034340000
#02319:0034343400000000
#02214:0034
#02213:00340000
#0251a:0000000034340000
#02519:0034343400000000
#02412:0034
#02413:00340000
#04519:00340000
#04518:0034
#04510:41
#04613:0034343400000000
#04614:0000000034340000
#04719:00340000
#04718:0034
#04813:0034343400000000
#04814:0000000034340000
#0695a:14
#0345a:14
#03552:14
#05952:14
#0605a:14
#0003a0:14
#000380:00000034000034000034000024000000
#001320:14
#001340:00000034000034000034000024000000
#0023a0:14
#002380:00000034000034000034000024000000
#003320:14
#003340:00000034000034000034000024000000
#0053a0:14
#005380:00240000
#005320:0014
#005340:00000024
#006380:14240000
#009320:14
#009340:00240000
#0093a0:0014
#009380:00000024
#010340:14
#010330:0000003400000000
#010320:00000024
#0123a0:14240000
#013320:14240000
#016380:14240000
#017340:14240000
#0193a0:00001424
#020320:14
#020330:00340000
#020340:00003424
#0213a0:14
#021390:0034343400000000
#021380:0000000034342400
#022320:14
#022330:00340000
#022340:00003424
#0233a0:14
#023390:0034343400000000
#023380:0000000034342400
#024340:14
#024330:00340000
#024320:00003424
#025380:14
#025390:0034343400000000
#0253a0:0000000034342400
#026340:14
#026330:00340000
#026320:00003424
#027380:14
#0273a0:00000034000034003400000024000000
#034380:00001424
#035340:00001424
#0363a0:00001424
#037320:00001424
#038380:00001424
#039340:00001424
#0403a0:0014
#040380:00000024
#041320:0014
#041340:00000024
#0423a0:0014
#042380:00000024
#043320:0014
#043340:00000024
#0453a0:14
#045390:00340000
#045380:00003424
#046320:14
#046330:0034343400000000
#046340:0000000034342400
#0473a0:14
#047390:00340000
#047380:00003424
#048320:14
#048330:0034343400000000
#048340:0000000034342400
#049380:14
#049390:00340000
#0493a0:00003424
#050340:14
#050330:0034343400000000
#050320:0000000034342400
#051380:14
#051390:00340000
#0513a0:00003424
#052340:14
#052320:00000034000034003400000024000000
#059340:00001424
#060380:00001424
#061340:0014
#061320:00000024
#062380:0014
#0623a0:00000024
#063320:0014
#063340:00000024
#0643a0:0014
#064380:00000024
#0653a0:0014
#065380:00000024
#066320:0014
#066340:00000024
#0673a0:0014
#067380:00000024
#068320:0014
#068340:00000024
