This file was generated by Ched 2.7.0.0.
#TITLE ""
#ARTIST ""
#DESIGNER ""
#DIFFICULTY 0
#PLAYLEVEL
#SONGID ""
#WAVE ""
#WAVEOFFSET 0
#JACKET ""
#REQUEST "ticks_per_beat 480"
#00002: 4
#BPM01: 140
#00008: 01
#TIL00: ""
#VOLUME: ""
#HISPEED 00
#MEASUREHS 00
#00218:16
#00312:16
#00412:16
#0091a:14
#00910:41
#01014:14
#0111a:14
#01214:14
#01318:14
#01412:14
#01518:14
#01612:14
#02712:2616
#02710:41
#02818:1616
#02912:1616
#03112:1616
#03218:1616
#03312:1616
#03618:16
#03612:0016
#03718:16
#03712:0016
#04014:14
#04118:14
#04212:14
#0431a:14
#04414:14
#04518:14
#04612:14
#04718:2616
#0471f:21
#04812:1616
#04810:41
#04918:1616
#05518:0016
#05512:26
#05612:16
#05618:0016
#05712:16
#05718:0016
#0651a:14
#0661a:14
#05112:2616
#05218:1616
#05312:1616
#05912:0016
#05918:26
#05910:41
#06018:16
#06012:0016
#06118:16
#06112:0016
#0391f:11
#00118:26
#00518:26
#00712:26
#02512:24
#0251a:24
#02612:24
#0261a:24
#06312:26
#06712:26
#06718:0026
#06812:26
#06918:26
#06912:0026
#07018:26
#07012:0026
#01710:41
#03510:41
#005380:1636
#006380:3626
#007320:1636
#008320:3626
#0173a0:14
#0183a0:24
#019320:14
#020320:24
#021380:14
#022380:24
#023340:14
#024340:24
#030380:1626
#034380:1626
#035320:1626
#038380:16
#039380:26
#050320:1626
#054380:1626
#058320:1626
#062380:1626
#063320:16
#064320:0026
