This file was generated by Ched 2.7.0.0.
#TITLE ""
#ARTIST ""
#DESIGNER ""
#DIFFICULTY 0
#PLAYLEVEL
#SONGID ""
#WAVE ""
#WAVEOFFSET 0
#JACKET ""
#REQUEST "ticks_per_beat 480"
#00002: 4
#BPM01: 140
#00008: 01
#TIL00: ""
#VOLUME: ""
#HISPEED 00
#MEASUREHS 00
#00812:1313000000000013
#00817:00000013000000000000000013001300
#00814:00000000130000000000001300000000
#00819:00000000001300000000130000000000
#00816:00000000000013000013000000000000
#0081b:0013
#0101b:1313
#01012:0013000000000013
#01018:00001300130013000013001300001300
#01015:00000013001300001300130013000000
#0121b:00000013130000000000130000000000
#01217:0000001300001300
#01215:0000000000000013
#01212:1300001300001300
#01219:0000000013000013
#01218:13
#01210:41
#01312:1300000013000013
#01314:0000000000130000
#01316:00001200001212000000000013000000
#0131b:1300001300000000
#01318:00000012000000000000000000000000
#01319:00000013
#02118:00000000000013130000000013000000
#02115:00000000140000000000001300130000
#0211a:14
#02112:00001300000000000013000000001300
#02117:00001400000000000013000000000000
#0211b:0000000000000013
#02116:13
#02612:14140000
#0261b:1300131300000000
#02616:0014000000000000
#02812:1300000000130000
#02816:00000013000000001400000013000000
#02814:0000000000000013
#0281b:2300002300131300
#02819:00000023000000000000000000001300
#0281f:11
#0291b:1300001300130013
#02916:0000000000141414
#02912:1300001313001300
#02915:00000013000000000000000000000000
#02918:00130000
#03012:0013001300000013
#03014:13000013
#03017:0000000000000013
#03019:00001313
#03016:0000141400000000
#0301b:0000130000130000
#03416:00130013
#03418:0000000000000013
#03412:1313
#0341b:13130013
#03414:0000001800180000
#03417:0013
#03415:0000000000000013
#03512:0013332600001400
#0351a:0000000000000014
#03517:00000013
#03516:0000000000000013
#0351b:0013330000000000
#03518:0000002600000000
#03612:23000000000013000000130000130013
#03616:0013
#0361b:23000000000000001300130000130000
#03618:0013000000001300
#03615:0013000000000000
#03617:00000000000013000000000000000013
#0361f:21
#03912:1300001300000000
#03916:1414141400130000
#0391b:0000130000130000
#04116:00541400000000000054540014001400
#0411b:0000000000000013
#04112:0054001414001300
#0411a:1400140000540000
#04118:0054000000000000000000000000000000000054000000000000000000000000
#04114:0000005400000000000000000000000000540000000000000000000000000000
#04214:13
#04212:0013000013000022
#0421b:0000001313000000
#04215:00000000000000000000131300000000
#04216:0014001400000000
#04219:00130000
#0421c:0000000000000022
#0041b:13000013000000001313000000000000
#00412:1300001300001300
#00414:0000130000130000
#00417:00000013
#00419:0000000000000013
#00418:0000001300000000
#00410:41
#0091b:13000000001300000000130013130000
#00912:00001300000000130000000000000000
#00917:00000000000000130000000000130000
#00916:13
#00915:00130000
#00918:00000013000000000000000000000000
#0111b:13000000000000001300001300000013
#01115:1313001300130013
#01118:00000013001300000013000000130000
#01112:00000000130000130000000013000000
#0181b:0013130000000000
#01812:1300000013000023
#01816:0013130000000000
#01817:0013
#01815:00000023
#01818:0000000000000023
#0201b:00000000001300000000130013000000
#02012:13000000000000130000000000001300
#02016:00000000001300000000001300000000
#02017:00000000000000130000000000000000
#02015:00001313000000000000000000000000
#02018:00130000000000000000000000000000
#02010:41
#02212:00000000130000000013000000001300
#02217:0000000000131300
#02215:00130000000000000000001300130000
#0221b:13000000000000130000000000001300
#02218:00001313000000000000000000000000
#02216:0000001300000000
#02316:0013000000131300
#02317:1300131313000000
#02312:1413
#0231b:0013000000000000
#0241b:13000013000000001300000000000000
#02416:00001313000000000000000000000000
#02412:00000000000000001300001300000000
#02417:00000000000000000000131300000000
#0251b:1300001300000013
#02512:00001313000000000000130000001300
#02515:00000013
#02517:00000013000000001300000000000000
#02518:00000013
#02516:13
#0311b:1300001300000000
#03118:0000000000120000
#03116:13000000000013000000001200001400
#03112:00000013000000000000000000140014
#03117:00130000
#0311a:00000014
#03212:00001300000000260000000014000000
#03218:00000000131300260012001200000000
#0321b:0013000000000000
#03216:2800000000120014
#03215:00000000131300000000000000000000
#0321a:00000000000000000000000000140014
#0371b:0013001300000000
#03712:00131413
#03717:00130000
#03716:0000001300000000
#0371a:0014
#03715:0000000000000013
#03710:41
#0381b:00001313000000000000000000000000
#03816:00001313000000000000000000000000
#03818:13
#03812:00000000000000000000131300000000
#03817:00000000000000000000131300000000
#03815:0013
#0161b:1300000000130000
#01617:0000001300001300
#01614:0000000000000013
#01612:13000013130013000000000013000000
#01619:0000000013000013
#01712:1313
#0171b:1300001300001300
#01716:00001200001212000000000000000000
#01718:00000012000000000000130000001300
#01715:0000000000130013
#01918:0000131300132424
#01915:00000000001300000023230000000000
#01916:23
#01919:25000000000000250000000000000000
#01912:00002500000000250000000000000000
#01917:0023000000000000
#01914:00000000000000000000000000240000
#02715:00000000000013000000001300001300
#02718:00000000000000130000130000130013
#0271b:00000013
#02712:00002413
#0271a:0024240000000000
#02716:0023230000000000
#02710:41
#04016:0000130000141400
#0401b:0000001300130000
#04017:0013
#04012:0013000000001314
#0401a:0000000000000014
#04315:00000000000000000013000013000000
#04318:00000000220000000013000023000000
#04312:2200000023000013
#0431b:0000000023000023
#0431c:22
#04316:00220000
#04812:0015000013000000
#0481b:00131300
#04816:00130000
#04819:0000001500001300
#04814:0000000000151300
#04817:0000000000000015
#04815:13
#04810:41
#05016:0000000000001212
#05018:0000000000001212
#0501b:23
#05012:23000000000000000000000000000000000000000000000000000000000000000000000000000000000000000000000000000000000000000000000000000000000000000000000000000000000000000000000000000000000000000000008c000000000000000000000000000000000000000000000000000000000000000000000000000000000000000000000000000000000000000000000000000000000000000000000000000000000000000000000000000000000000000000000000
#05916:0012000012002400
#05918:00000012000000000012000000002400
#05912:1c00120000140000
#05914:0000001200000024
#0591a:00000000000000120000140000000000
#0591c:00000000001200000000000000000000
#00314:00001428000000001400000000000000
#00316:00000000001428000000000000000000
#0031a:00000000000000000000001400000000
#00312:2300000000140000
#00315:0000000000002323
#00318:00000000000000000024000000230023
#00512:00000013000000001313000000000000
#0051b:1300001300001300
#00519:0000130000130000
#00516:00000013
#00514:0000000000000013
#00515:0000001300000000
#0061b:00000013000000001313000000000000
#00612:1300001300001300
#00614:0000130000130000
#00617:00000013
#00619:0000000000000013
#00618:0000001300000000
#00715:00000000000000001212000000000000
#0071b:1300130000230000
#00714:00000013000000000000000000000000
#00712:0000001300002300
#00718:0000000000000023
#0521b:1300001300001300
#0521b:13
#05212:23000013000000001313000000000000
#05216:00000013
#05219:0000130000130000
#05214:0000000000000013
#05215:0000001300000000
#00015:19
#00012:13
#00112:19
#01412:00000013130000000000130000000000
#01416:0000001300001300
#01418:0000000000000013
#0141b:1300001300001300
#01414:0000000013000013
#01415:13
#0151b:1313
#01519:0000000000130013
#01517:00000013
#01512:1300001300000000
#01518:00001200001212000000000000000000
#01516:00000012000000000000000000000000
#01514:00000013
#0331b:0013000000000000
#03315:00000000131300000000000000000000
#03312:28001300000000260000240024000000
#03318:00000000131300260000000000000000
#03316:00000000000000000000001400140000
#0331a:0000000000240024
#04415:13000013
#04418:00131300
#0441b:0000001300000013
#04412:0000001300000013
#04515:13000013
#04518:00131300
#04512:0000001300000013
#0451b:0000001300000013
#04616:000000000000000000000000000000000000000000000000000000000000000000000000000000000000000000000000000000000000000000000000000000000000000000000000000000000000000000000000000000000000000000000000000000000000000000000000000000000000000000000000000000000000000000000000000000000000000000000000000000000000000000000000000000000000000000000000000000000000000000000000000000000000000000000000000000000000000000000000000000000000000000000000000000000000000000000000000000000000000000000000000000000000000000000000000000000000000000000000000000000000000000000000000000000000000000000000000000000000000000000000000000000000000000000000000000000000000000000000000000000000000000000000000000000000000000000000000000000000000000000000000000000000000000000000000000000000000000000000000000000000000000000000000000000000000000000000000000000000000000000000000000000000000000000000000000000000000000000000000000000000000000000000000000000000000000000000000000000000000000000014540000000000000000000000000000000000000000000000000000000000000000000000000000000000000000000000000000000000000000000000000000000000000000000000000000000000000000000000000000000000000000000000000000000000000000000000000000000000000000000000000000000000000000000000000000000000000000000000000000000000000000000000000000000000000000000000000000000000000000000000000000000000000000000000000000000000000000000000000000000000000000000000000000000000000000000000000000000000000000000000000000000000000000000000000000000000000000000000000000000000000000000000000000000000000000000000000000000000000000000000000000000000000000000000000000000000000000000000000000000000000000000000000000000000000000000000000000000000000000000000000000000000000000000000000000000000000000000000000000000000000000000000000000000000000000000000000000000000000000000000000000000000000000000000000000000000000000000000000000000000000000000000000000000000000000000000000000000000000000000000000000000000000000000000000000000000000000000000000000000000000000000000000000000000000000000000000000000000000000000000000000000000000000000000000000000000000000000000000000000000000000000000000000000000000000000000000000000000000000000000000000000000000000000000000000000000000000000000000000000000000000000000000000000000000000000000000000000000000000000000000000000000000000000000000000000000000000000000000000000000000000000000000000000000000000000000000000000000000000000000000000000000000000000000000000000000000000000000000000000000000000000000000000000000000000000000000000000000000000000000000000000000000000000000000000000000000000000000000000000000000000000000000000000000000000000000000000000000000000000000000000000000000000000000000000000000000000000000000000000000000000000000000000000000000000000000000000000000000000000000000000000000000000000000000000000000000000000000000000000000000000000000000000000000000000000000000000000000000000000014540000000000000000000000000000000000000000000000000000000000000000000000000000000000000000000000000000000000000000000000000000000000000000000000000000000000000000000000000000000000000000000000000000000000000000000000000000000000000000000000000000000000000000000000000000000000000000000000000000000000000000000000000000000000000000000000000000000000000000000000000000000000000000000000000000000000000000000000000000000000000000000000000000000000000000000000000000000000000000000000000000000000000000000000000000000000000000000000000000000000000000000000000000000000000000000000000000000000000000000000000000000000000000000000000000000000000000000000000000000000000000000000000000000000000000000000000000000000000000000000000000000000000000000000000000000000000000000000000000000000000000000000000000000000000000000000000000000000000000000000000000000000000000000000000000000000000000000000000000000000000000000000000000000000000000000000000000000000000000000000
#04618:13000000000000000000001400000000
#04612:0000005400140000
#04614:00000014000000000000000000000000
#0461a:0014000000000054
#04716:000000000000000000000000000000000000000000000000000000000000000000000000000000000000000000000000000000000000000000000000000000000000000000000000000000000000000000000000000000000000000000000000000000000000000000000000000000000000000000000000000000000000000000000000000000000000000000000000000000000000000000000000000000000000000000000000000000000000000000000000000000000000000000000000000000000000000000000000000000000000000000000000000000000000000000000000000000000000000000000000000000000000000000000000000000000000000000000000000000000000000000000000000000000000000000000000000000000000000000000000000000000000000000000000000000000000000000000000000000000000000000000000000000000000000000000000000000000000000000000000000000000000000000000000000000000000000000000000000000000000000000000000000000000000000000000000000000000000000000000000000000000000000000000000000000000000000000000000000000000000000000000000000000000000000000000000000000000000000000000014540000000000000000000000000000000000000000000000000000000000000000000000000000000000000000000000000000000000000000000000000000000000000000000000000000000000000000000000000000000000000000000000000000000000000000000000000000000000000000000000000000000000000000000000000000000000000000000000000000000000000000000000000000000000000000000000000000000000000000000000000000000000000000000000000000000000000000000000000000000000000000000000000000000000000000000000000000000000000000000000000000000000000000000000000000000000000000000000000000000000000000000000000000000000000000000000000000000000000000000000000000000000000000000000000000000000000000000000000000000000000000000000000000000000000000000000000000000000000000000000000000000000000000000000000000000000000000000000000000000000000000000000000000000000000000000000000000000000000000000000000000000000000000000000000000000000000000000000000000000000000000000000000000000000000000000000000000000000000000000000000000000000000000000000000000000000000000000000000000000000000000000000000000000000000000000000000000000000000000000000000000000000000000000000000000000000000000000000000000000000000000000000000000000000000000000000000000000000000000000000000000000000000000000000000000000000000000000000000000000000000000000000000000000000000000000000000000000000000000000000000000000000000000000000000000000000000000000000000000000000000000000000000000000000000000000000000000000000000000000000000000000000000000000000000000000000000000000000000000000000000000000000000000000000000000000000000000000000000000000000000000000000000000000000000000000000000000000000000000000000000000000000000000000000000000000000000000000000000000000000000000000000000000000000000000000000000000000000000000000000000000000000000000000000000000000000000000000000000000000000000000000000000000000000000000000000000000000000000000000000000000000000000000000000000000000000000000000000000000000014540000000000000000000000000000000000000000000000000000000000000000000000000000000000000000000000000000000000000000000000000000000000000000000000000000000000000000000000000000000000000000000000000000000000000000000000000000000000000000000000000000000000000000000000000000000000000000000000000000000000000000000000000000000000000000000000000000000000000000000000000000000000000000000000000000000000000000000000000000000000000000000000000000000000000000000000000000000000000000000000000000000000000000000000000000000000000000000000000000000000000000000000000000000000000000000000000000000000000000000000000000000000000000000000000000000000000000000000000000000000000000000000000000000000000000000000000000000000000000000000000000000000000000000000000000000000000000000000000000000000000000000000000000000000000000000000000000000000000000000000000000000000000000000000000000000000000000000000000000000000000000000000000000000000000000000000000000000000000000000000
#04714:00000000000000000000001400000000
#0471a:0000005400140000
#04718:00000014000000000000000000000000
#04712:0014000000000054
#04912:1300001300230000
#0491b:1300001300230000
#04916:0000000000000024
#04919:00000023
#04914:00000023
#0531b:00000013000000001313000000000000
#05312:1300131300001300
#05317:00000013
#05314:0000000000130000
#05319:0000000000000013
#05318:0000001300000000
#05412:00000013000000001313000000000000
#0541b:1300001300001300
#05419:0000130000130000
#05416:00000013
#05414:0000000000000013
#05415:0000001300000000
#05519:00000013000000001212000000000000
#05512:1300130000230000
#0551b:0000001300002300
#05515:0000000000000023
#0561b:1313000000000013
#05616:00000013000000000000000013001300
#05619:00000000130000000000001300000000
#05614:00000000001300000000130000000000
#05617:00000000000013000013000000000000
#05612:0013
#05812:1313
#0581b:0013000000000013
#05815:00001300130013000013001300001300
#05818:00000013001300001300130013000000
#05712:13000000001300000000130013130000
#0571b:00001300000000130000000000000000
#05716:00000000000000130000000000130000
#05717:13
#05718:00130000
#05715:00000013000000000000000000000000
#0021b:23
#0601a:24
#06012:24
#05112:26000026
#05118:26000026
#06217:00000000000000000000000000000000000000000000000000000000000000000000000000000000000000000000000000000000000000000000000000000000000000000000000000000000000000000000000000000000000000000000000000000000000000000000000000000000000000000000000000000000000000000000000000000000000000000000000000000000000000000000000000000072520000000000000000000000000000000000000000000000000000000000000000000000000000000000000000000000000000000000000000000000000000000000000000000000000000000000000000000000000000000000000000000000000000000000000000000000000000000000000000000000000000000000000000000000000000000000000000000000000000000000000000000000000000000000000000000000000000000000000000000000000000000000000000000000000000000000000000000000000000000000000000000000000000000000000000000000000000000000000000000000000000000000000000000000000000000000000000000000000000000000000000000000000000000000000000000000000000000000000000000000000000000000000000000000000000000000000000000000000000000000000000000000000000000000000000000000000000000000000000000000000000000000000000000000000000000000000000000000000000000000000000000000000000000000000000000000000000000000000000000000000000000000000000000000000000000000000000000000000000000000000000000000000000000000000000000000000000000000000000000000
#02652:54540000
#0265b:0000005300000000
#02656:0024000000000000
#02852:63
#02856:00000023000000000000000000000000
#03458:0000000000000063
#03455:0000000000000053
#03652:53000000330000000000000000000053
#03658:0023000000000000
#03655:0023000000000000
#0365b:53430000
#03952:0000005300000000
#03956:0000000000530000
#0395b:0000000000530000
#0605a:64
#06052:54
#00452:5300005300005300
#00952:00000000000000530000000000000000
#00957:00000000000000000000000000630000
#01252:5300005300000000
#0185b:00630000
#01857:0023
#02052:00000000000000530000000000001300
#0205b:00000053
#02057:0000000000000013
#02356:0063000000005300
#02357:0000001353000000
#0235b:00000013
#02352:0000001300000000
#02456:00000053000000000000000000001300
#0245b:00000053000000000000000000001300
#02457:00000000000013000000006300000000
#02452:00000000000013000000006300000000
#02552:00000063000000000000000000000000
#0255b:0000005300000000
#02557:0023
#0315b:6300001300000000
#03156:0000005300000000
#0385b:00000053000000000000000000000000
#03856:00000053000000000000000000000000
#03857:00000000000014000000006300000000
#03852:00000000000014000000006300000000
#03855:0000000000000014
#0385a:0000000000000014
#0425b:0053
#04352:5200001453000000
#04355:00000000000000000023000000000000
#04358:00001400520000000023000000000000
#0435b:0063
#04354:0014000000000000
#0435c:62
#04356:00620000
#0435a:0000001400000000
#05052:531c
#0505b:53
#00352:13
#00354:00000048000000000000000000000000
#00356:0000004800000000
#00355:19
#00852:13
#0085b:13
#00856:0000001300000000
#00857:00000013
#0075b:6300000000630000
#00752:00000063
#00758:0000000000000063
#0135b:0000005300000000
#01652:0000005300000000
#0165b:53
#0175b:0000005300005300
#01752:0063
#01755:0000000000530000
#01758:0000000000000063
#01952:00001500000000350000000000000000
#01958:0000000000000014
#01959:15000000000000450000000000000000
#02157:00005400000000000053000000000000
#02155:00640000
#0225b:00000000000000630000000000000000
#02752:0034
#0295b:5300000000000053
#03256:48
#03252:00000000000000360000000000000000
#03258:00000000000000460000000000000000
#03552:0023001600000000
#03558:0000001600000000
#0355b:0023000000000000
#03752:0014
#0375a:0014
#04052:1300000000000054
#04057:13
#04056:0000000000140000
#0405b:0000000000130000
#04852:0015000000000000
#04859:0000001500000000
#04854:0000000000150000
#04857:0000000000000015
#05152:36000036
#05158:46000046
#0055b:6300006300006300
#00652:5300005300005300
#00055:59
#00152:69
#0415a:00240000
#04156:0054000000000000
#0025b:23
#0145b:6300006300000000
#01552:0000006300000000
#03052:0000006300000000
#03352:38000000000000360000000000000000
#03358:00000000000000460000000000000000
#0465a:0000000000000014
#04652:0000001400000000
#04656:000000000000000000000000000000000000000000000000000000000000000000000000000000000000000000000000000000000000000000000000000000000000000000000000000000000000000000000000000000000000000000000000000000000000000000000000000000000000000000000000000000000000000000000000000000000000000000000000000000000000000000000000000000000000000000000000000000000000000000000000000000000000000000000000000000000000000000000000000000000000000000000000000000000000000000000000000000000000000000000000000000000000000000000000000000000000000000000000000000000000000000000000000000000000000000000000000000000000000000000000000000000000000000000000000000000000000000000000000000000000000000000000000000000000000000000000000000000000000000000000000000000000000000000000000000000000000000000000000000000000000000000000000000000000000000000000000000000000000000000000000000000000000000000000000000000000000000000000000000000000000000000000000000000000000000000000000000000000000000000054000000000000000000000000000000000000000000000000000000000000000000000000000000000000000000000000000000000000000000000000000000000000000000000000000000000000000000000000000000000000000000000000000000000000000000000000000000000000000000000000000000000000000000000000000000000000000000000000000000000000000000000000000000000000000000000000000000000000000000000000000000000000000000000000000000000000000000000000000000000000000000000000000000000000000000000000000000000000000000000000000000000000000000000000000000000000000000000000000000000000000000000000000000000000000000000000000000000000000000000000000000000000000000000000000000000000000000000000000000000000000000000000000000000000000000000000000000000000000000000000000000000000000000000000000000000000000000000000000000000000000000000000000000000000000000000000000000000000000000000000000000000000000000000000000000000000000000000000000000000000000000000000000000000000000000000000000000000000000000000000000000000000000000000000000000000000000000000000000000000000000000000000000000000000000000000000000000000000000000000000000000000000000000000000000000000000000000000000000000000000000000000000000000000000000000000000000000000000000000000000000000000000000000000000000000000000000000000000000000000000000000000000000000000000000000000000000000000000000000000000000000000000000000000000000000000000000000000000000000000000000000000000000000000000000000000000000000000000000000000000000000000000000000000000000000000000000000000000000000000000000000000000000000000000000000000000000000000000000000000000000000000000000000000000000000000000000000000000000000000000000000000000000000000000000000000000000000000000000000000000000000000000000000000000000000000000000000000000000000000000000000000000000000000000000000000000000000000000000000000000000000000000000000000000000000000000000000000000000000000000000000000000000000000000000000000000000000000000000000000054000000000000000000000000000000000000000000000000000000000000000000000000000000000000000000000000000000000000000000000000000000000000000000000000000000000000000000000000000000000000000000000000000000000000000000000000000000000000000000000000000000000000000000000000000000000000000000000000000000000000000000000000000000000000000000000000000000000000000000000000000000000000000000000000000000000000000000000000000000000000000000000000000000000000000000000000000000000000000000000000000000000000000000000000000000000000000000000000000000000000000000000000000000000000000000000000000000000000000000000000000000000000000000000000000000000000000000000000000000000000000000000000000000000000000000000000000000000000000000000000000000000000000000000000000000000000000000000000000000000000000000000000000000000000000000000000000000000000000000000000000000000000000000000000000000000000000000000000000000000000000000000000000000000000000000000000000000000000000000000000
#04658:00000000000000000000002400000000
#04654:00000024000000000000000000000000
#04756:000000000000000000000000000000000000000000000000000000000000000000000000000000000000000000000000000000000000000000000000000000000000000000000000000000000000000000000000000000000000000000000000000000000000000000000000000000000000000000000000000000000000000000000000000000000000000000000000000000000000000000000000000000000000000000000000000000000000000000000000000000000000000000000000000000000000000000000000000000000000000000000000000000000000000000000000000000000000000000000000000000000000000000000000000000000000000000000000000000000000000000000000000000000000000000000000000000000000000000000000000000000000000000000000000000000000000000000000000000000000000000000000000000000000000000000000000000000000000000000000000000000000000000000000000000000000000000000000000000000000000000000000000000000000000000000000000000000000000000000000000000000000000000000000000000000000000000000000000000000000000000000000000000000000000000000000000000000000000000000064000000000000000000000000000000000000000000000000000000000000000000000000000000000000000000000000000000000000000000000000000000000000000000000000000000000000000000000000000000000000000000000000000000000000000000000000000000000000000000000000000000000000000000000000000000000000000000000000000000000000000000000000000000000000000000000000000000000000000000000000000000000000000000000000000000000000000000000000000000000000000000000000000000000000000000000000000000000000000000000000000000000000000000000000000000000000000000000000000000000000000000000000000000000000000000000000000000000000000000000000000000000000000000000000000000000000000000000000000000000000000000000000000000000000000000000000000000000000000000000000000000000000000000000000000000000000000000000000000000000000000000000000000000000000000000000000000000000000000000000000000000000000000000000000000000000000000000000000000000000000000000000000000000000000000000000000000000000000000000000000000000000000000000000000000000000000000000000000000000000000000000000000000000000000000000000000000000000000000000000000000000000000000000000000000000000000000000000000000000000000000000000000000000000000000000000000000000000000000000000000000000000000000000000000000000000000000000000000000000000000000000000000000000000000000000000000000000000000000000000000000000000000000000000000000000000000000000000000000000000000000000000000000000000000000000000000000000000000000000000000000000000000000000000000000000000000000000000000000000000000000000000000000000000000000000000000000000000000000000000000000000000000000000000000000000000000000000000000000000000000000000000000000000000000000000000000000000000000000000000000000000000000000000000000000000000000000000000000000000000000000000000000000000000000000000000000000000000000000000000000000000000000000000000000000000000000000000000000000000000000000000000000000000000000000000000000000000000000000000000064000000000000000000000000000000000000000000000000000000000000000000000000000000000000000000000000000000000000000000000000000000000000000000000000000000000000000000000000000000000000000000000000000000000000000000000000000000000000000000000000000000000000000000000000000000000000000000000000000000000000000000000000000000000000000000000000000000000000000000000000000000000000000000000000000000000000000000000000000000000000000000000000000000000000000000000000000000000000000000000000000000000000000000000000000000000000000000000000000000000000000000000000000000000000000000000000000000000000000000000000000000000000000000000000000000000000000000000000000000000000000000000000000000000000000000000000000000000000000000000000000000000000000000000000000000000000000000000000000000000000000000000000000000000000000000000000000000000000000000000000000000000000000000000000000000000000000000000000000000000000000000000000000000000000000000000000000000000000000000000000
#04754:00000000000000000000002400000000
#04758:00000024000000000000000000000000
#04752:0000000000000014
#0475a:0000001400000000
#04952:5300001300000000
#0495b:6300001300000000
#0525b:6300006300006300
#05352:5300005300005300
#0545b:6300006300006300
#05552:5300000000530000
#05555:0000000000000053
#0555b:00000053
#05652:13
#0565b:13
#05657:0000001300000000
#05656:00000013
#05952:1c
#0575b:00000000000000630000000000000000
#05756:00000000000000000000000000530000
#01058:0000001300000000
#01055:00000013
#05855:0000001300000000
#05858:00000013
#000350:19
#0013b0:23
#001321:19
#002321:23
#0023b0:13
#003350:29
#004320:13
#004360:00000023000000000000000000000000
#004320:0000001300000000
#004360:00000000000000000023000000000000
#004320:00000013
#005360:23
#0053b1:13
#005371:00000023000000000000000000000000
#0053b1:0000001300000000
#005371:00000000000000000023000000000000
#0053b1:00000013
#006371:23
#006320:13
#006360:00000023000000000000000000000000
#006320:0000001300000000
#006360:00000000000000000023000000000000
#006320:00000013
#007360:23
#0073b1:13
#007371:00000023000000000000000000000000
#007381:0000001323000000
#0073b1:0000000000130000
#007381:00000023
#007320:00000013
#007350:0000000000000023
#007381:0000000000000013
#0083b1:23
#009321:00000000000000130000000000000000
#009371:0000000000230000
#009371:00000000000000000000000000130000
#010321:23
#012321:13
#012361:00000023000000000000000000000000
#012321:0000001300000000
#012361:0000000000230000
#0133b1:0000001300000000
#013371:0023
#0143b1:13
#014371:00000023000000000000000000000000
#0143b1:0000001300000000
#014371:0000000000230000
#015321:0000001300000000
#015361:0023
#0163b1:13
#016371:00000023000000000000000000000000
#016321:0000001300000000
#016361:0000000000230000
#0173b1:0000001300000000
#017381:0023
#017320:00001323
#017350:0000000000330000
#0173b1:00000013
#017381:0000000000000033
#0183b1:23
#0183b1:00130023
#018371:0053
#020321:00000000000000130000000000000000
#020361:0000000000230000
#0203b1:00000013
#020371:0000000000000023
#021371:0014000000000000
#0213b1:00230000
#021350:00140000
#021320:0000002300000000
#021370:00000000000000000013000000000000
#0213b0:00000000000000000000002300000000
#0223b0:00000000000000130000000000000000
#022370:00000000000000000023000000000000
#023360:0013000000000000
#023320:0000332300000000
#023370:0013
#0233b0:0000000000332300
#023361:00000013
#024321:23
#024361:00000013000000000000000000000000
#024321:0000002300000000
#0243b0:00000013000000000000000000000000
#024370:0000002300000000
#024370:00000000000000000000001300000000
#0243b0:0000000000000023
#024321:00000000000000000000001300000000
#024361:0000000000000023
#025321:00000013000000000000000000000000
#025361:0000002300000000
#0253b0:0000001300230000
#025370:0053
#026320:14340000
#026360:0054003400000000
#027360:24
#0263b1:0000001300000000
#027321:23
#028321:1300002300000000
#028361:00000053000000000000000000000000
#0293b1:13
#029381:00000023000000000000000000000000
#0293b1:0000000000000013
#030371:0023000000000000
#030321:0000001300000000
#030361:0000000000230000
#0313b1:13
#031371:00000023000000000000000000000000
#031361:0000001300000000
#031321:0000000000230000
#034381:0000000000000013
#0353b1:0033330000000000
#035381:0000002600000000
#034350:0000000000000013
#035320:0033332600000000
#0363b0:13230000
#036380:0053000000000000
#036321:13230000
#036351:0053000000000000
#036321:00000000000000000000000000000013
#037361:0023000000000000
#0383b1:00000013000000000000000000000000
#038371:0000002400000000
#038360:00000013000000000000000000000000
#038320:0000002400000000
#038320:00000000000000000000001300000000
#038350:0000000000000024
#038371:00000000000000000000001300000000
#0383a1:0000000000000024
#039321:0000001300000000
#039361:0000000000330000
#040321:23
#0393b0:0000000000130000
#040370:23
#0403b0:0013000000000000
#040390:00230000
#040320:0000001300000000
#040340:0023
#040320:0000000000000014
#041360:3434003400240000
#0413a0:00540000
#0423b0:0013
#042380:00000000000000000000332300000000
#0433c0:12
#043380:0024000000000000
#043321:12
#043341:0024000000000000
#043361:00120000
#043321:0000002400000000
#043380:00120000
#0433a0:0000002400000000
#043320:0000000013230000
#043350:00000000000000000053000000000000
#0433b1:0000000013230000
#043381:00000000000000000053000000000000
#044381:13
#0443b1:0023000000000000
#044320:0013000000000000
#044350:00230000
#044350:0013
#044320:0000000000230000
#0443b1:0000000000130000
#044381:00000023
#045381:13
#045351:0023000000000000
#045320:0013000000000000
#045350:00230000
#045350:0013
#045380:0000000000230000
#0453b1:0000000000130000
#045381:00000023
#046341:14000054000000000000000000540000
#046361:000000000000000000000000000000000000000000000000000000000000000000000000000000000000000000000000000000000000000000000000000000000000000000000000000000000000000000000000000000000000000000000000000000000000000000000000000000000000000000000000000000000000000000000000000000000000000000000000000000000000000000000000000000000000000000000000000000000000000000000000000000000000000000000000000000000000000000000000000000000000000000000000000000000000000000000000000000000000000000000000000000000000000000000000000000000000000000000000000000000000000000000000000000000000000000000000000000000000000000000000000000000000000000000000000000000000000000000000000000000000000000000000000000000000000000000000000000000000000000000000000000000000000000000000000000000000000000000000000000000000000000000000000000000000000000000000000000000000000000000000000000000000000000000000000000000000000000000000000000000000000000000000000000000000000000000000000000000000000000000054000000000000000000000000000000000000000000000000000000000000000000000000000000000000000000000000000000000000000000000000000000000000000000000000000000000000000000000000000000000000000000000000000000000000000000000000000000000000000000000000000000000000000000000000000000000000000000000000000000000000000000000000000000000000000000000000000000000000000000000000000000000000000000000000000000000000000000000000000000000000000000000000000000000000000000000000000000000000000000000000000000000000000000000000000000000000000000000000000000000000000000000000000000000000000000000000000000000000000000000000000000000000000000000000000000000000000000000000000000000000000000000000000000000000000000000000000000000000000000000000000000000000000000000000000000000000000000000000000000000000000000000000000000000000000000000000000000000000000000000000000000000000000000000000000000000000000000000000000000000000000000000000000000000000000000000000000000000000000000000000000000000000000000000000000000000000000000000000000000000000000000000000000000000000000000000000000000000000000000000000000000000000000000000000000000000000000000000000000000000000000000000000000000000000000000000000000000000000000000000000000000000000000000000000000000000000000000000000000000000000000000000000000000000000000000000000000000000000000000000000000000000000000000000000000000000000000000000000000000000000000000000000000000000000000000000000000000000000000000000000000000000000000000000000000000000000000000000000000000000000000000000000000000000000000000000000000000000000000000000000000000000000000000000000000000000000000000000000000000000000000000000000000000000000000000000000000000000000000000000000000000000000000000000000000000000000000000000000000000000000000000000000000000000000000000000000000000000000000000000000000000000000000000000000000000000000000000000000000000000000000000000000000000000000000000000000000000000000000000000054000000000000000000000000000000000000000000000000000000000000000000000000000000000000000000000000000000000000000000000000000000000000000000000000000000000000000000000000000000000000000000000000000000000000000000000000000000000000000000000000000000000000000000000000000000000000000000000000000000000000000000000000000000000000000000000000000000000000000000000000000000000000000000000000000000000000000000000000000000000000000000000000000000000000000000000000000000000000000000000000000000000000000000000000000000000000000000000000000000000000000000000000000000000000000000000000000000000000000000000000000000000000000000000000000000000000000000000000000000000000000000000000000000000000000000000000000000000000000000000000000000000000000000000000000000000000000000000000000000000000000000000000000000000000000000000000000000000000000000000000000000000000000000000000000000000000000000000000000000000000000000000000000000000000000000000000000000000000000000000000
#046381:00000000005400000000005400000000
#047341:24
#047380:14000054000000000000000000540000
#047360:000000000000000000000000000000000000000000000000000000000000000000000000000000000000000000000000000000000000000000000000000000000000000000000000000000000000000000000000000000000000000000000000000000000000000000000000000000000000000000000000000000000000000000000000000000000000000000000000000000000000000000000000000000000000000000000000000000000000000000000000000000000000000000000000000000000000000000000000000000000000000000000000000000000000000000000000000000000000000000000000000000000000000000000000000000000000000000000000000000000000000000000000000000000000000000000000000000000000000000000000000000000000000000000000000000000000000000000000000000000000000000000000000000000000000000000000000000000000000000000000000000000000000000000000000000000000000000000000000000000000000000000000000000000000000000000000000000000000000000000000000000000000000000000000000000000000000000000000000000000000000000000000000000000000000000000000000000000000000000000054000000000000000000000000000000000000000000000000000000000000000000000000000000000000000000000000000000000000000000000000000000000000000000000000000000000000000000000000000000000000000000000000000000000000000000000000000000000000000000000000000000000000000000000000000000000000000000000000000000000000000000000000000000000000000000000000000000000000000000000000000000000000000000000000000000000000000000000000000000000000000000000000000000000000000000000000000000000000000000000000000000000000000000000000000000000000000000000000000000000000000000000000000000000000000000000000000000000000000000000000000000000000000000000000000000000000000000000000000000000000000000000000000000000000000000000000000000000000000000000000000000000000000000000000000000000000000000000000000000000000000000000000000000000000000000000000000000000000000000000000000000000000000000000000000000000000000000000000000000000000000000000000000000000000000000000000000000000000000000000000000000000000000000000000000000000000000000000000000000000000000000000000000000000000000000000000000000000000000000000000000000000000000000000000000000000000000000000000000000000000000000000000000000000000000000000000000000000000000000000000000000000000000000000000000000000000000000000000000000000000000000000000000000000000000000000000000000000000000000000000000000000000000000000000000000000000000000000000000000000000000000000000000000000000000000000000000000000000000000000000000000000000000000000000000000000000000000000000000000000000000000000000000000000000000000000000000000000000000000000000000000000000000000000000000000000000000000000000000000000000000000000000000000000000000000000000000000000000000000000000000000000000000000000000000000000000000000000000000000000000000000000000000000000000000000000000000000000000000000000000000000000000000000000000000000000000000000000000000000000000000000000000000000000000000000000000000000000000000000000054000000000000000000000000000000000000000000000000000000000000000000000000000000000000000000000000000000000000000000000000000000000000000000000000000000000000000000000000000000000000000000000000000000000000000000000000000000000000000000000000000000000000000000000000000000000000000000000000000000000000000000000000000000000000000000000000000000000000000000000000000000000000000000000000000000000000000000000000000000000000000000000000000000000000000000000000000000000000000000000000000000000000000000000000000000000000000000000000000000000000000000000000000000000000000000000000000000000000000000000000000000000000000000000000000000000000000000000000000000000000000000000000000000000000000000000000000000000000000000000000000000000000000000000000000000000000000000000000000000000000000000000000000000000000000000000000000000000000000000000000000000000000000000000000000000000000000000000000000000000000000000000000000000000000000000000000000000000000000000000000
#047340:00000000005400000000005400000000
#048380:24
#049320:13
#049350:00230000
#0493b1:13
#049381:00230000
#0503b1:13
#050321:00000000000000000000000000000000000000000000000000000000000000000000000000000000000000000000000000000000000000000000000000000000000000000000000000000000000000000000000000000000000000000000002c000000000000000000000000000000000000000000000000000000000000000000000000000000000000000000000000000000000000000000000000000000000000000000000000000000000000000000000000000000000000000000000000
#050320:132c
#0523b0:13
#052370:00000023000000000000000000000000
#0523b0:0000001300000000
#052370:00000000000000000023000000000000
#0523b0:00000013
#053370:23
#053321:13
#053351:00000023000000000000000000000000
#053321:0000001300000000
#053361:00000000000000000023000000000000
#053321:00000013
#054361:23
#0543b0:13
#054370:00000023000000000000000000000000
#0543b0:0000001300000000
#054370:00000000000000000023000000000000
#0543b0:00000013
#055370:23
#055321:13
#055361:00000023000000000000000000000000
#055351:0000001323000000
#055321:0000000000130000
#055351:00000023
#0553b0:00000013
#055380:0000000000000023
#055351:0000000000000013
#056321:23
#0573b1:00000000000000130000000000000000
#057361:0000000000230000
#057361:00000000000000000000000000130000
#0583b1:23
#0603a1:14
#062371:00220000
#060320:14
#062370:00000000000000000000000000000000000000000000000000000000000000000000000000000000000000000000000000000000000000000000000000000000000000000000000000000000000000000000000000000000000000000000000000000000000000000000000000000000000000000000000000000000000000000000000000000000000000000000000000000000000000000000000000000022000000000000000000000000000000000000000000000000000000000000000000000000000000000000000000000000000000000000000000000000000000000000000000000000000000000000000000000000000000000000000000000000000000000000000000000000000000000000000000000000000000000000000000000000000000000000000000000000000000000000000000000000000000000000000000000000000000000000000000000000000000000000000000000000000000000000000000000000000000000000000000000000000000000000000000000000000000000000000000000000000000000000000000000000000000000000000000000000000000000000000000000000000000000000000000000000000000000000000000000000000000000000000000000000000000000000000000000000000000000000000000000000000000000000000000000000000000000000000000000000000000000000000000000000000000000000000000000000000000000000000000000000000000000000000000000000000000000000000000000000000000000000000000000000000000000000000000000000000000000000000000000000000000000000000000000000000000000000000000000000
#0419a0:14
#041920:0024000000000000
#041920:0014
#0419a0:0000000000240000
#0469a0:0014000000000000
#046920:0000002400000000
#046920:0000000000140000
#0469a0:0000000000000024
#047920:0014000000000000
#0479a0:0000002400000000
#0479a0:0000000000140000
#047920:0000000000000024
