This file was generated by Ched 2.7.0.0.
#TITLE ""
#ARTIST ""
#DESIGNER ""
#DIFFICULTY 0
#PLAYLEVEL
#SONGID ""
#WAVE ""
#WAVEOFFSET 0
#JACKET ""
#REQUEST "ticks_per_beat 480"
#00002: 4
#BPM01: 145
#00008: 01
#TIL00: ""
#VOLUME: ""
#HISPEED 00
#MEASUREHS 00
#0011a:14
#0021a:14
#00518:14
#00510:41
#00614:14
#00718:14
#00814:14
#0091a:14
#01012:14
#01212:14
#02118:2616
#04112:14
#04314:14
#04418:14
#0421a:14
#0571a:14
#05912:14
#06118:14
#06214:14
#06318:14
#06414:14
#00312:14
#00412:14
#0111a:14
#02512:1616
#02212:1616
#02318:16
#02312:0016
#02618:1616
#02712:16
#02718:0016
#02710:41
#02918:2616
#03312:1616
#03012:1616
#03118:16
#03112:0016
#03418:1616
#03512:16
#03518:0016
#0491a:14
#05012:14
#05112:0016
#05118:26
#05319:14
#0531f:11
#06912:0016
#06918:26
#0691f:21
#07018:16
#07012:0016
#07010:41
#07118:16
#07112:0016
#07318:0016
#07312:16
#07412:16
#07418:0016
#07512:16
#07518:0016
#07712:0016
#07718:26
#07912:16
#07918:0016
#08118:16
#08112:0016
#08312:16
#08318:0016
#0851a:1414
#08512:1414
#08510:41
#0871a:14
#08818:14
#08912:14
#09014:14
#09118:14
#0921a:14
#09314:14
#09412:14
#05218:16
#06618:34
#06518:0034
#06814:34
#06714:0034
#01510:41
#03910:41
#013380:14
#014380:24
#015340:14
#016340:24
#0173a0:14
#0183a0:24
#019320:14
#020320:24
#024380:1626
#028320:1626
#032380:1626
#036320:1626
#037380:16
#038360:36
#039380:36
#040360:26
#045320:16
#046340:36
#047320:36
#048340:26
#0653a0:14
#065380:0034
#066380:3424
#067320:14
#067340:0034
#068340:3424
#072380:1626
#076320:1626
#078380:1626
#080320:1626
#082380:1626
#084320:1626
#086320:1424
#0863a1:1424
#095381:16
#0963a1:00000024
