This file was generated by Ched 2.7.0.0.
#TITLE ""
#ARTIST ""
#DESIGNER ""
#DIFFICULTY 0
#PLAYLEVEL
#SONGID ""
#WAVE ""
#WAVEOFFSET 0
#JACKET ""
#REQUEST "ticks_per_beat 480"
#00002: 4
#BPM01: 100
#00008: 01
#TIL00: ""
#VOLUME: ""
#HISPEED 00
#MEASUREHS 00
#00918:14
#00910:41
#01014:14
#01214:14
#01118:14
#00118:14
#00218:14
#00314:14
#00414:14
#0051a:14
#0061a:14
#00712:14
#00812:14
#02718:2616
#0271f:21
#02812:1616
#02810:41
#02918:16
#02912:0016
#03112:2616
#03218:1616
#03312:16
#03318:0016
#03512:0016
#03518:26
#03618:1616
#04514:14
#04614:14
#04718:14
#04818:14
#04912:14
#05012:14
#0511a:14
#0131a:14
#01412:14
#01410:41
#01612:14
#0151a:14
#02614:0014
#03918:0016
#03912:26
#03910:41
#04012:1616
#0211f:11
#03410:41
#01910:41
#017380:14
#018380:24
#019340:14
#020340:24
#0213a0:14
#0223a0:24
#023320:14
#024320:24
#025380:14
#026380:24
#030380:1626
#034320:1626
#037320:1626
#038380:1626
#041380:1626
#042320:1626
#043380:16
#044380:26
#0523a0:14000000000000003400000034000024
