This file was generated by Ched 2.7.0.0.
#TITLE ""
#ARTIST ""
#DESIGNER ""
#DIFFICULTY 0
#PLAYLEVEL
#SONGID ""
#WAVE ""
#WAVEOFFSET 0
#JACKET ""
#REQUEST "ticks_per_beat 480"
#00002: 4
#BPM01: 181
#00008: 01
#TIL00: ""
#VOLUME: ""
#HISPEED 00
#MEASUREHS 00
#05612:0000005400000014
#0561b:13
#05613:0000000000000000000000000054000000000000000000000000000000000000
#05614:00000000000000540000000000000000
#05615:0000000000000000000000000000005400000000000000000000000000000000
#05616:0054
#05617:0000000000000000000000000000000000540000000000000000000000000000
#05618:00000000000000000054000000000000
#05619:0000000000000000000000000000000000000054000000000000000000000000
#0561a:0000000000540000
#0081b:1300000013130000
#00818:001300130000000000000000
#00812:000000000000000000001300000000000000130000130000
#00815:001313000000
#01118:1316000000160000
#01112:2300131600001600
#01115:0013000000000000
#01117:00130000
#01119:0000001300000000
#0111b:0023
#0121b:13000000000000000013000000000000
#01212:1600130013160016
#01218:00000000160000000000000000000013
#0121a:00000000000000000000001300000000
#01215:00000013
#01219:00000000000000000000000000130000
#01216:0016000000000000
#01214:0000001600000000
#01814:0000001300000000
#0181b:0000000013000013
#01812:00130000
#01817:00130013
#01816:0000000013000013
#0181a:24
#0201a:14
#02012:14001313
#02016:0000130000000013
#02019:0000001300000000
#0201b:0000130000130013
#02017:0013
#02010:41
#02318:00131300
#02315:0000001300000000
#0231b:0013000000000000
#02314:0000000000130000
#02312:0013
#02319:0000000000000013
#02316:00000014
#0241b:00131300
#02417:0000001300000013
#02416:00131300
#02412:2400001300001313
#0241a:24
#03416:0000140000130000
#03419:00000012000000000000000013000000
#03412:2400002600000013
#0341b:00000000001200000000130000000000
#03417:00120000000000000000000000001300
#03414:0014000000001300
#03517:00120000000000000000130000000000
#03512:0000000000130000
#03519:00000013
#03516:0000140000000013
#03514:00000013
#0351b:0000000000000013
#03518:0014002600000000
#03515:00000012000000000000000000000000
#03513:00000000001200000000000000000000
#0351a:24
#04315:0000002400000013
#04318:00000000000000000000000000000013
#0431a:0014000000000000
#04313:00140000
#04319:0000001400000000
#04312:5314
#04316:0024000024000000
#04317:63240000
#05112:14
#05114:00120012
#0511a:000000120000000000000012
#0511c:12000012
#05117:0012
#05717:00000013
#0571a:0014000000000000
#06216:0012
#06218:00120012
#06212:2c
#0061b:1313
#00619:00130013
#00617:0012001200120012
#00614:00130013
#00612:0013
#00712:24000013
#00716:24002414
#0071a:0024
#00714:00240000
#00718:00240000
#00915:00130000001300130000000000000000
#00918:0013130026000000
#00912:00000023000000001600130000000000
#00917:00000000000000000000001300000000
#00914:00000013
#00919:00000000000000000000000000130000
#00916:0000000000000013
#0091b:23000000000023000000000000000013
#01018:0016130013000000
#01015:00000013000000000000160000001600
#01012:2600001600001300
#0101b:0000001300000000
#01010:41
#01312:26000013000026002c00000000000000
#0131b:0000001300000000
#01318:00000026000000000000120000000000
#01316:00000000000000000000001200000000
#0131a:00000012
#01518:0000000013130000
#01515:00000000000000000013001329000000
#0151a:12
#01514:00120000
#01512:0000001200000029
#0151c:0012000000000000
#0161b:0013000000000000
#01615:2900000015000000000000000000000000000054005400000000000000000000
#0161a:00000014
#01612:00000000230023005400000054140000
#01618:0000000000000014
#01614:00000000000000000054005400000014
#01616:0000252500540000
#01613:0000000000000000000000000000000000540000000000540000000000000000
#02216:0000001400140013
#02212:2400241400000014
#0221a:2400240000140000
#02612:1400000013000013
#0261a:14
#02619:0000001300000000
#0261b:00130000
#02616:00130013
#02617:0000000013000013
#03217:0000000013000013
#03212:1400000013001313
#0321a:14
#03219:0000001300000000
#0321b:0000130000130000
#03216:00130000
#03012:14141400
#03018:0000001200000000
#0301a:1400140014001414
#03010:41
#03618:00140000001400000000130000000000
#03615:0013130000130000
#0361a:00000014000000000000000000000000
#03612:2400002413001300
#0361b:00001313
#04418:00130000
#04419:00000013
#04412:1300001300000013
#0441b:1300001300130000
#04414:00000013
#04415:0013000000000000
#04416:0014
#04515:00000000000000130000000000000000
#04518:00000000000013000000130013000013
#0451b:0000000013000013
#04514:00130000
#04516:14
#04512:0013000013000000
#04519:00130000
#05015:001200000000
#05018:230000120012000000000000
#05012:0012
#05019:000012
#05016:000000000000000000120012
#0501a:0014
#05212:12
#05218:001200000000000000000000
#05214:001200121200
#0521a:000000120000000000120012
#05216:001200
#0521c:000000000012000000000000
#05317:00000012000000000000000000000000
#05318:00000000000012001200001200000000
#05316:1200000000120000
#05312:00000024
#05912:13
#0591a:00000012
#05916:00000000000000000000000000120000
#05918:0000000000000012
#05914:00000000000000000000000000000012
#0611a:0014
#0611b:00000013000000000000000000000013
#06117:13000000000013000000001300000000
#06112:2300002324130000
#06114:00000013
#06119:00000000000000000000000000130000
#06116:00000023000000000000000000001300
#0611f:11
#08312:1300000000530000
#08316:00000000000000000053000000000000
#08315:00000000000000000000000000000000000000000000000000000000000000000000000000530000000000000000000000000000000000000000000000000000
#08314:0000000000000000000000000000000000000053000000000000000000000000
#08313:00000000000000000000000000000000000000000000000000000000000000000000000000000053000000000000000000000000000000000000000000000000
#00012:26000000000000000000001400000000000000000000000000000000000000000000000000000000000000000000000000000000000000000000000000000000
#00018:00000000000000000000000000000000000000000000000000000000000000002600000000000000000000160000000000000000000000000000000000000000
#00014:00720000
#0001a:00000072
#00317:1300001300000000
#0031b:0013000013000000
#00319:00130000
#00312:0000002323000000
#00316:0023000000000000
#00314:00230000
#01414:0000120000000012
#01418:1200000000120000
#01412:0000001200001200
#01416:0012000000000000
#0171a:14
#01712:00140000000000000000230000000000
#01718:0014000000000000
#01714:00000014000000000000000000000000
#01719:00250000
#01717:00000000000000270000000000000000
#01715:0000000000290000
#02117:00130000
#02119:0000001300000000
#0211b:0013
#0211a:0000000000240000
#02116:00000024
#02112:0023252729000024
#03712:1300000000130000
#0371b:0000131300230000
#03718:0000000000001414
#03714:00000000000000000000000000140014
#03817:00120000000000000000130000000000
#03814:00160013
#0381b:0000000000000013
#03812:0000000000130000
#03819:00000013
#03816:0016000000000013
#03815:00000012000000000000000000000000
#03813:00000000001200000000000000000000
#03818:2600002600000000
#03916:0000160000130000
#0391b:00000000001200000000130000000000
#03914:0016000000001300
#03917:00120000000000000000000000001300
#03919:00000012000000000000000013000000
#03912:2600002600000013
#0401b:0000001300130000
#04015:00001323
#04018:00002313
#04012:0013240000000013
#04017:0013230000000000
#04016:2300001300000000
#0401a:24
#04112:1600001613000000
#04115:00000013000000000000000000000023
#04118:2600002623000023
#0411b:00000023000000000000000000000000
#04615:13
#04616:0000140000140014
#0461a:0024000024002424
#04612:0024242424242400
#04812:130000000013000000000000
#04818:001300130000000000000000
#04815:001313000000
#0481b:13
#0481c:00001212
#04816:00000000000000000012000000120000
#0481a:0000000000120012
#04814:00000000000000000000001200000012
#0471b:00000013
#04715:000000000000000000000013
#04712:24262413
#04718:260000260013
#0471a:00240000
#04916:00130000000000000000000000000000
#04912:00000000001300002600000000000000
#04918:0000000016130000
#04915:00000000000000000000001300000000
#0491a:0000000000001313
#04914:00000023000000130000000000000013
#04919:0013002300000000
#04917:00130000
#04913:00000000000000000000000000130000
#0491b:23
#0541c:1212
#05416:00120000000000000012000000000000
#0541a:0012001200120012
#05414:00000012000000120000001200000012
#05412:00000000001200000000000000120000
#05418:00120012
#05410:41
#06318:00120000
#0631a:2314
#06316:1224
#06313:00230000
#0661b:00001313
#06612:0013
#06615:0013001300000000
#0691b:2300002300130000
#06916:00000000000000000000001300002400
#06919:00000013
#06914:00000000000000000000000000130000
#06912:13000000000013001600000000000024
#06915:00000013000000000000000000000000
#06918:00000023000000002600000000000000
#07115:0000000000000013
#07118:00000000000000000000000000000013
#0711a:0014001400000000
#07112:53141400
#07116:0024242424000000
#07110:41
#07117:63
#07215:0000161316000000
#0721b:1300001300000000
#07212:1313000000140000
#07218:00001300000000000000000014000024
#07216:0000000000240014
#07214:00000000000000000000000024000014
#0721a:0000000000000024
#0771b:00000000001300000000130000000000
#07716:00000000130000000000001300000000
#07719:00000023000000130000000013000000
#07714:00001300000023000000000000130000
#07717:00130000000000000000000000001300
#07712:23000000000000001600000000000013
#07718:0026
#07312:1400000024000024
#07316:2414000000000000
#07314:00140014000000000000000000000000
#07315:0000001300002600
#07318:00240024000000130000000000000000
#0731a:0024000024000024
#07914:1300001300000000
#0791b:23130000
#07918:0013001600001600
#07912:0016000023160000
#07916:00130000
#07815:00130000
#07818:26000013000016000000000000001600
#07812:0016001300160000
#07816:0013
#0781b:00000013
#08018:1600000000000013
#08012:13000000160000000013000000000000
#0801b:00131300
#0801a:0000000000130000
#08013:00000000000000000000001300000000
#08019:00000013
#08014:00000000000000000000000000130000
#08015:00001600000016000000000000000013
#0811b:00000013000000000000000000000000
#08112:00000026000013002c00001400000000
#0811a:0000000000140000
#08118:2600002600001400
#08114:00000000000000000000000000140000
#08116:00000000000000000000000000001414
#0821b:00000013000000000000000000000000
#08212:00000026000013002c00000000000000
#08218:2600002600001200
#08215:0000000000000012
#0011b:00121200
#00118:0052000000121200
#00116:0012001500000000000000000000000000000000000012000000000000000000
#00113:00121200
#00115:22
#03114:00140000
#03118:0000130000130000
#03116:0013001414001400
#0311a:0000001300001400
#03115:0000000000000013
#03112:0014
#05812:1212
#05818:00120000000000000012000000000000
#05814:0012001200120012
#0581a:00000012000000120000001200000012
#05816:00120012
#0581c:00000000001200000000000000120000
#00513:000000000000000000000000000000000000000000000000001500150015001500150015001500150015001500150015
#00514:000000000000000000000000001300130013001300130013
#00512:000000000000271717171717
#00516:24
#0251b:0013000000000000
#02512:0000160000240000
#02515:0000001600000000
#02518:0016
#02516:00000024
#0251a:0000000000000024
#06513:000000000000000000000000000000000000000000000000001a001a001a001a001a001a001a001a001a001a001a001a
#06514:000000000000000000000000001800180018001800180018
#06512:2c00000000002c1c1c1c1c1c
#0651a:001313140014000000000000
#06517:000000130013000000000000000000000000000000000000
#06516:001400
#01912:0014000000000000
#01916:00140000
#0191a:0000001400000000
#02812:1400130000130013
#0281a:14
#02817:0000130000000013
#02814:0000001300000000
#0281b:00001313
#02816:0013
#02916:00130024
#02914:0000001300000000
#02912:0000000013240000
#0291a:0000000000000024
#0291b:0023000000000000
#02919:00250000
#02917:0000002700000000
#02915:0029
#0271a:0014000014001400
#02716:00141313
#02712:0000001400140000
#02717:0000000000130000
#03319:00120000
#03315:0013000012000000
#03316:0000001400000000
#0331a:0000000000242400
#03312:0000000000242400
#04216:0000000000000013
#04215:00001300000000230000130000000000
#04218:26000013000023002600001300000000
#04212:00160016
#0421b:0000000000000023
#04210:41
#04214:00000000000000000000000000000053
#04219:00000000000000000000000000000063
#0551c:1212000000000000
#05516:00120012000000000000000000120000
#0551a:00000012
#05518:0000000000000012
#05514:00000000000000000000000000000012
#06016:1400005400540000
#0601a:00540054
#06019:0000000000000000005400000000000000000000000000540000000000000000
#06018:00000000005400000000005400000000
#06017:0000000000000000000000540000000000000000005400000000000000000000
#06015:0000000000000000000000000054000000000054000000000000000000000000
#06014:00000000000000540054000000000000
#06013:0000000000000000000000000000005400540000000000000000000000000000
#06012:0054
#0681c:000000000012000000000000
#06816:000012000000120000000000000000140000000000140000
#06819:001212000000
#06813:12
#06812:0013
#0681b:00000013
#06713:00000012
#06718:000000000000000000000012
#0671b:00002312
#06712:23
#06714:00230000
#06719:00230000
#06716:0023
#07016:0014002400140013
#0701a:24000014000000002400001400000000
#07012:00000000140000240000000014000000
#0701b:0000000000000023
#0701f:21
#07014:00000000000000000000000000000053
#07019:00000000000000000000000000000063
#0761b:130000000013000000000000
#07615:001300130000000000000000
#07618:000000000000000013000000000000001300000000000000000000120000000000000000000000120000000000000000
#07612:13001212
#07614:0000000000120012
#0761a:00000000000000000000001200000012
#07512:26242613
#07518:000000260000000000000013
#0751b:00000013
#07515:000000000013
#0751a:2424
#0741a:0014000000140000
#07416:0000140014231400
#07412:0023001423002314
#0741b:0000230000000023
#07417:0000002300000000
#06418:001313140014000000000000
#06415:000000130013000000000000000000000000000014000000
#06414:001400
#06419:000000000000001313140014
#06416:000000000000000000000000000000130013000000000000
#06412:2629
#00212:24
#00216:23
#00217:0023
#00412:24
#00418:22
#00416:0023
#05652:0000000000000054
#0565b:53
#06252:1c
#0075a:0014
#00756:0014
#0185a:14
#01856:1400000063000013
#0185b:0000000000000013
#0245b:0063
#02452:1400000000000053
#02457:0000000000000013
#0245a:14
#00252:14
#00256:53
#00257:0063
#0025a:0014
#00352:1453
#0035b:0053
#00452:34
#00458:52
#00456:0063
#0045b:0043
#00952:0036
#00958:0046
#02552:0000000000140000
#02556:00000014
#0255a:0000000000000014
#02558:0016
#03257:0000000053000053
#0325a:14
#03252:1400000000000013
#0325b:0000000000230000
#03658:0000000000530000
#03655:0000000000530000
#03652:00000023
#0365b:00000023
#04356:0054
#04352:0054
#0575a:0024000000000000
#05757:00000053
#05952:53
#0615a:0044
#06152:0034
#08352:63
#00052:00000000000000000000005400000000000000000000000000000000000000000000000000000000000000000000000000000000000000000000000000000000
#00058:00000000000000000000000000000000000000000000000000000000000000000000000000000000000000260000000000000000000000000000000000000000
#00556:54
#00559:0045
#00552:340000000000272727272727
#00554:000000000000000000000000002300230023002300230023
#00553:000000000000000000000000000000000000000000000000005500550055005500550055005500550055005500550055
#01055:0000000000160016
#01058:0016000000000000
#01052:0000001600000000
#01158:0016000000160000
#01152:0000001600001600
#01352:360000361c000000
#01358:00000046000000000000000000000000
#0135a:00000042
#01555:00000049
#01552:0000000000000039
#01759:00450000
#01757:00000000000000470000000000000000
#01755:0000000000490000
#01752:0000000000530000
#02652:1400000000000013
#02657:0000000053000013
#03052:1464
#0305a:0000000000000044
#03452:0000003600000000
#04055:00005313
#04058:00001353
#0405a:14
#04052:00140000
#04152:0013
#04158:0013
#04752:1414
#0475a:00140000
#05157:0012
#0635a:0064
#06356:0064
#06652:1c63
#0665b:00000053
#06552:1c00000000002c2c2c2c2c2c
#06553:000000000000000000000000000000000000000000000000005a005a005a005a005a005a005a005a005a005a005a005a
#06554:000000000000000000000000002800280028002800280028
#06452:1619
#07152:0054
#07156:0054
#0725a:0000000000000024
#07256:0000000000000024
#07254:00000000000000000000000000000054
#07258:00000000000000000000000000000054
#07356:2424000000000000
#07352:2400000034000034
#0735a:0024000044000044
#07354:00540054000000000000000000000000
#07358:00540054000000000000000000000000
#07852:0016000000160000
#07858:0000001600000016
#07952:0016000000160000
#07958:0000001600001600
#08158:4600004600000000
#08152:00000036000000001c00000000000000
#08258:4600004600000000
#08252:00000036000000001c00000000000000
#00652:17
#01256:0016000000000000
#01254:0000001600000000
#01252:0000000000160016
#01952:00000033
#0195b:00000043
#0335a:0000000000444400
#03352:0000000000343400
#0605a:00000044
#06056:54
#00156:0052002500000000000000000000000000000000000000000000000000000000
#01655:49
#01656:0000151500000000
#02057:0053
#0205b:0000000000230053
#0205a:14
#02052:14
#02056:0000000000000013
#0215a:0000000000140000
#02156:00000014
#02152:0000000000000014
#0225a:14
#02256:0000004400340000
#02252:0000000000000054
#02852:1400000000230053
#0285a:14
#02856:0063
#02857:0000000000000013
#02952:0000000000140000
#02956:00000014
#0295a:0000000000000014
#02756:00000013
#0275a:00000014
#03752:0000000000130000
#0375b:0000000000130000
#03558:0000004600000000
#03858:0000004600000000
#03952:0000003600000000
#04252:00360036
#04258:4646
#04452:0000001300000000
#0445b:0000001300000000
#04552:0053
#0465a:0054000000000000
#04656:00240000
#04952:0016
#04958:0016
#05352:00000034
#06952:0016
#06958:0016
#0705a:4444
#07052:00340034
#07752:0016
#07758:0016
#0755a:1414
#07552:00140000
#08452:0014
#0315a:00000044
#03152:0034
#0675b:0013
#06756:0013
#000320:16005600000000000000005400000000000000000000000000000000000000000000000000000000000000000000000000000000000000000000000000000000
#000340:000000000000000000000000000000000000000000000000000000000000000000000000000000000000000000000000000000000000000000000000005200000000000000000000000000000000000000000000000000000000000000000000000000000000000000000000000000000000000000000000000000000000000000000000000000000000000000000000000000000000000000000000000000000000000000000000000000000000000000000000000000000000000000000000000000000000000000000000000000000000000000000000000000000000000000000000000000000000000000000000000000000000000000000000000000000000000000000000000000000000000000000000000000000000000000000000000000000000000000000000000000000000000000000000000000000000000000000000000000000052000000000000000000000000000000000000000000000000000000000000000000000000000000000000000000000000000000000000000000000000000000000000000000000000000000000000000000000000000000000000000000000000000000000000000000000000000000000000000000000000000000000000000000000000000000000000000000000000000000000000220000000000000000000000000000000000000000000000000000000000000000000000000000000000000000000000000000000000000000000000000000000000000000000000000000000000000000000000000000000000000000000000000000000000000000000000000000000000000000000000000000000000000000000000000000000000000000000000000000000000000000000000000000000000000000000000000000000000000000000000000000000000000000000000000000000000000000000000000000000000000000000000000000000000000000000000000000000000000000000000000000000000000000000000000000000000000000000000000000000000000000000000000000000000000000000000000000000000000000000000000000000000000000000000000000000000000000000000000000000000000000000000000000000000000000000000000000000000000000000000000000000000000000000000000000000000000000000000000000000000000000000000000000000000000000000000000000000000000000000000000000000000000000000000000000000000000000000000000000000000000000000000000000000000000000000000000000000000000000000000000000000000000000000000000000000000000000000000000000000000000000000000000000000000000000000000000000000000000000000000000000000000000000000000000000000000000000000000000000000000000000000000000000000000000000000000000000000000000000000000000000000000000000000000000000000000000000000000000000000000000000000000000000000000000000000000000000000000000000000000000000000000000000000000000000000000000000000000000000000000000000000000000000000000000000000000000000000000000000000000000000000000000000000000000000000000000000000000000000000000000000000000000000000000000000000000000000000000000000000000000000000000000000000000000000000000000000000000000000000000000000000000000000000000000000000000000000000000000000000000000000000000000000000000000000000000000000000000000000000000000000000000000000000000000000000000000000000000000000000000000000000000000000000000000000000000000000000000000000000000000000000000000000000000000000000000000000000000000000000000000000000000000000000000000000000000000000000000000000000000000000000000000000000000000000000000000000000000000000000000000000000000000000000000000000000000000000000000000000000000000000000000000000000000000000000000000000000000000000000000000000000000000000000000000000000000000000000000000000000000000000000000000000000000000000000000000000000000000000000000000000000000000000000000000000000000000000000000000000000000000000000000000000000000000000000000000000000000000000000000000000000000000000000000000000000000000000000000000000000000000000000000000000000000000000000000000000000000000000000000000000000000000000000000000000000000000000000000000000000000000000000000000000000000000000000000000000000000000000000000000000000000000000000000000000000000000000000000000000000000000000000000000000000000000000000000000000000000000000000000000000000000000000000000000000000000000000000000000000000000000000000000000000000000000000000000000000000000000000000000
#000380:000000000000000000000000000000000000000000000000000000000000000000000000000000000000000000000000000000000000000000000000000000000000000000000000000000000000000000000000000000000000000000000000000000000000000000000000000000000000000000000000000000000000000000000000000000000000000000000000000000000000000000000000000000000000000000000000000000000000000000000000000000000000000000000000000000000000000000000000000000000000000000000000000000000000000000000000000000000000000000000000000000000000000000000000000000000000000000000000000000000000000000000000000000000000000000000000000000000000000000000000000000000000000000000000000000000000000000000000000000000000000000000000000000000000000000000000000000000000000000000000000000000000000000000000000000000000000000000000000000000000000000000000000000000000000000000000000000000000000000000000000000000000000000000000000000000000000000000000000000000000000000000000000000000000000000000000000000000000000000000000000000000000000000000000000000000000000000000000000000000000000000000000000000000000000000000000000000000000000000000000000000000000000000000000000000000000000000000000000000000000000000000000000000000000000000000000000000000000000000000000000000000000000000000000000000000000000000000000000000000000000000000000000000000000000000000000000000000000000000000000000000000000000000000000000000000000000000000000000000000000000000000000000000000000000000000000000000000000000000000000000000000000000000000000000000000000000000000000000000000000000000000000000000000000000000000000000000000000000000000000000000000000000000000000000000000000000000000000000000000000000000000000000000000000000000000000000000000000000000000000000000000000000000000000000000000000000000000000000000000000000000000000000000000000000000000000000000000000000000000000000000000000000000000000000000000000000000000000000000000000000000000000000000000000000000000000000000000000000000000000160000000000000000000000000000000000000000000000000000000000000000000000000000000000000000000000000000000000000000000000565300000000000000000000000000000000000000000000000000000000000000000000000000000000000000000000000000000000000000000000000000000000000000000000000000000000000000000000000000000000000000000000000000000000000000000000000000000000000000000000000000000000000000000000000000000000000000000000000000000000000000000000000000000000000000000000000000000000000000000000000000000000000000000000000000000000000000000000000000000000000000000000000000000000000000000000000000000000000000000000000000000000000000000000000000000000000000000000000000000000560000000000000000000000000000000000000000000000000000000000000000000000000000000000000000000000000000000000000000000000000000000000000000000000000000000000000000000000000000000000000000000000000000000000000000000000000000000000000000000000000000000000000000000000000000000000000000000000000000000000000000000000000000000000000000000000000000000000000000000000000000000000000000000000000000000000000000000000000000000000000000000000000000000000000000000000000000000000000000000000000000000000000000000000000000000000000000000000000000000000000000000000000000000000000000000000000000000000000000000000000000000000000000000000000000000000000000000000000000000000000000000000000000000000000000000000000000000000000000000000000000000000000000000000000000000000000000000000000000000000000000000000000000000000000000000000000000000000000000000000000000000000000000000000000000000000000000000000000000000000000000000000000000000000000000000000000000000000000000000000000000000000000000000000000000000000000000000000000000000000000000000000000000000000000000000000000000000000000000000000000000000000000000000000000000000000000000000000000000000000000000000000000000000000000000000000000000000000000000000000000000000000000000000000000000000000000000000000000000000000
#0003b0:000000000000000000000000000000000000000000000000000000000000000000000000000000000000000000000000000000000000000000000000000000000000000000000000000000000000000000000000000000000000000000000000000000000000000000000000000000000000000000000000000000000000000000000000000000000000000000000000000000000000000000000000000000000053000000000000000000000000000000000000000000000000000000000000000000000000000000000000000000000000000000000000000000000000000000000000000000000000000000000000
#0003a0:00000022
#001350:12550000000000000000000000000000
#001360:0052005500000000000000000000000000000000000000000000000000000000
#001380:0022000000000000
#002360:13
#0023a0:0024
#002371:0013
#003321:24
#003321:0013
#003351:00000023
#0033b0:0013
#003380:00000023
#004380:12
#0043b0:0023
#004361:0013
#005321:24
#005360:14
#005390:0025
#005321:000000000000175757575757
#005331:000000000000000000000000000000000000000000000000005500550055005500550055005500550055005500550055
#005341:000000000000000000000000005300530053005300530053
#006321:27
#008351:0000000013230000
#008381:0000000000001323
#010321:0000000013230000
#0103b1:0000000000001323
#011351:0000000013230000
#011381:0000000000001323
#014321:1222000000000000
#014381:0000162600000000
#014361:0000000012220000
#014381:0000000000001626
#015361:1222000000000000
#015381:0000162600000000
#017321:0000000000130000
#018361:24
#018361:0013
#018321:00000023
#019321:0013
#0193b1:00000023
#0193b0:0013
#019320:00000023
#020370:00001323
#0203b0:0000000000530000
#0203b0:0000000000000013
#021350:0023000000000000
#022320:0000000000000014
#023370:0024000000000000
#0243b0:0013
#024370:00000023
#024320:0000000000000013
#025360:0023000000000000
#026370:0013
#0263b0:00000023
#028360:00001323
#028320:0000000000530000
#028320:0000000000000013
#029380:0023000000000000
#030320:0014
#030360:00000024
#030360:0000000000000014
#031320:0024000000000000
#032370:00001323
#0323b0:0000000000530000
#032370:0000000000000013
#0333b0:0023000000000000
#036380:0000000000130023
#0363b0:00000053
#036351:0000000000130023
#036321:00000053
#037371:13
#0373b1:005300230000000000000000000000000000000000000000
#037360:0013000000000000
#037320:000053230000000000000000
#037360:0000001300000000
#037320:000000000053230000000000
#037371:0013
#0373b1:000000000000000000000000005300230000000000000000
#040351:0013
#040321:0000000000230000
#040381:00000013
#0403b1:0000000000000023
#043321:0014
#043361:00000024
#043360:0014
#0433a0:00000024
#045320:0013
#045350:0000000000532300
#0463a0:0014002400000000
#046360:00540000
#0553b0:000000000000000000000000135353532300000000000000000000000000000000000000000000000000000000000000
#0553a0:000000000000000000000000000000000000000000000000005300530053005300000000000000000000000000000000000000000000000000000000000000000000000000000000000000000000000000000000000000000000000000000000
#055361:000000000000000000000000000000001353535323000000000000000000000000000000000000000000000000000000
#055371:000000000000000000000000000000000000000000000000000000000000000000530053005300530000000000000000000000000000000000000000000000000000000000000000000000000000000000000000000000000000000000000000
#055390:000000000000000000000000000000000000000013535353230000000000000000000000000000000000000000000000
#055380:000000000000000000000000000000000000000000000000000000000000000000000000000000000053005300530053000000000000000000000000000000000000000000000000000000000000000000000000000000000000000000000000
#055341:000000000000000000000000000000000000000000000000135353532300000000000000000000000000000000000000
#055351:000000000000000000000000000000000000000000000000000000000000000000000000000000000000000000000000005300530053005300000000000000000000000000000000000000000000000000000000000000000000000000000000
#055370:000000000000000000000000000000000000000000000000000000001353535323000000000000000000000000000000
#055360:000000000000000000000000000000000000000000000000000000000000000000000000000000000000000000000000000000000000000000530053005300530000000000000000000000000000000000000000000000000000000000000000
#055321:000000000000000000000000000000000000000000000000000000000000000013535353230000000000000000000000
#055331:000000000000000000000000000000000000000000000000000000000000000000000000000000000000000000000000000000000000000000000000000000000053005300530053000000000000000000000000000000000000000000000000
#0563b1:13
#056321:0000002400000000
#0563a1:0000000000140024
#056320:0000000000000014
#0573a0:0054000000000000
#057320:000000000000000000000000000000000000335533553355335533553355335533553355230000000000000000000000
#057371:00000013
#0583b1:23
#059321:13
#059361:00230000
#0593b0:000000000000000000000000135353532300000000000000000000000000000000000000000000000000000000000000
#0593a0:000000000000000000000000000000000000000000000000005300530053005300000000000000000000000000000000000000000000000000000000000000000000000000000000000000000000000000000000000000000000000000000000
#059351:000000000000000000000000000000001353535323000000000000000000000000000000000000000000000000000000
#059361:000000000000000000000000000000000000000000000000000000000000000000530053005300530000000000000000000000000000000000000000000000000000000000000000000000000000000000000000000000000000000000000000
#059380:000000000000000000000000000000000000000013535353230000000000000000000000000000000000000000000000
#059370:000000000000000000000000000000000000000000000000000000000000000000000000000000000053005300530053000000000000000000000000000000000000000000000000000000000000000000000000000000000000000000000000
#059321:000000000000000000000000000000000000000000000000135353532300000000000000000000000000000000000000
#059331:000000000000000000000000000000000000000000000000000000000000000000000000000000000000000000000000005300530053005300000000000000000000000000000000000000000000000000000000000000000000000000000000
#059380:000000000000000000000000000000000000000000000000000000001353535323000000000000000000000000000000
#059370:000000000000000000000000000000000000000000000000000000000000000000000000000000000000000000000000000000000000000000530053005300530000000000000000000000000000000000000000000000000000000000000000
#059351:000000000000000000000000000000000000000000000000000000000000000013535353230000000000000000000000
#059361:000000000000000000000000000000000000000000000000000000000000000000000000000000000000000000000000000000000000000000000000000000000053005300530053000000000000000000000000000000000000000000000000
#060361:14
#0603a1:00240000
#0633a1:0014
#063361:00000024
#063360:0014
#063320:00000024
#065320:0000000000001c5c5c5c5c5c
#065330:000000000000000000000000000000000000000000000000005a005a005a005a005a005a005a005a005a005a005a005a
#065340:000000000000000000000000005800580058005800580058
#066320:2c
#066380:000000130000005300230000000000000000000000000000
#0663b0:000053330000000000000000
#066320:0013
#066350:00000023
#0663b1:00000013
#067371:23
#071321:0014
#071361:00000024
#071360:0014
#0713a0:00000024
#072360:0000000000000014
#072340:00000000000000000000000000000054
#073320:54240000
#073340:00540054000000000000000000000000
#073360:0054000000000000
#0723a1:0000000000000014
#072381:00000000000000000000000000000054
#073361:54240000
#073381:00540054000000000000000000000000
#0733a1:0054000000000000
#0783b1:0000000013230000
#078321:0000000000001323
#0793b1:0000000013230000
#079351:0000000000001323
#083321:13
#083361:00000000000000000023000000000000
#083321:000000000000000000000000000000000000000000000000000000000000130000000000000000000000335253525352
#084321:535253525352535253525352535253525352535253525352240000000000000000000000000000000000000000000000
#016920:00001424
#016960:0000000000540000
#0429b0:0000000000000013
#043970:23
#042961:0000000000000013
#043921:23
#056921:0000001400000000
#0569a1:0000000000240000
#0609a1:00140024
#060921:0054
#0709b1:0000000000000013
#071971:23
#070960:0000000000000013
#071920:23
#083960:00000000000000000013000000000000
#083920:0000000000230000
