This file was generated by Ched 2.7.0.0.
#TITLE ""
#ARTIST ""
#DESIGNER ""
#DIFFICULTY 0
#PLAYLEVEL
#SONGID ""
#WAVE ""
#WAVEOFFSET 0
#JACKET ""
#REQUEST "ticks_per_beat 480"
#00002: 4
#BPM01: 150
#00008: 01
#TIL00: ""
#VOLUME: ""
#HISPEED 00
#MEASUREHS 00
#00414:00140000
#0041a:24
#00512:14
#00518:00140000
#0061a:14
#00614:00140000
#00712:14
#00718:00140000
#00714:0014
#0071a:00000014
#00818:00140000
#00812:24
#00810:41
#0091a:14
#00914:00140000
#01012:14
#01018:00140000
#0111a:14
#01114:00140000
#01118:0014
#01112:00000014
#01412:14
#01414:0014
#01812:14
#01818:0014
#0151a:14
#01516:00140000
#01512:0014
#03814:00140000
#03818:2614
#03812:00000014
#03810:41
#0391a:14
#03912:00140000
#03918:0014
#03914:00000014
#0401a:14
#04014:00140000
#04018:0014
#04012:00000014
#04218:00140000
#04214:0014
#0421a:00000014
#04212:26
#04312:14
#0431a:00140000
#04314:0014
#04318:00000014
#04412:14
#04418:00140000
#04414:0014
#0441a:00000014
#04618:00160016
#04712:00160016
#04818:00160016
#04810:41
#05017:0000001400000000
#0501f:11
#0501a:24
#05112:14
#05118:00140000
#05114:0014
#0511a:00000014
#05212:14
#05318:1414
#05314:00140014
#05417:0000001400000000
#0541a:24
#05512:1414
#0551a:00140014
#05612:14
#05615:0000001400000000
#05718:1414
#05714:00140014
#05812:00140000
#05818:26001414
#0581f:21
#05810:0041
#05912:14
#0591a:00140000
#05914:00001414
#0601a:14
#06012:00140000
#06018:00001414
#06218:00140000
#06212:26001414
#06318:14
#06314:00140000
#0631a:00001414
#06414:14
#06418:00140000
#06412:00001414
#06612:0014
#0661a:00000014
#06618:26
#07118:14000014
#07114:0000000000140014
#0711a:0034340000000000
#07212:0034140000000000
#0731a:14
#07312:0014000000000000
#07318:00140000
#07314:0000001400000000
#01712:14
#01716:00140000
#0171a:00002424
#01618:14
#0161a:0014
#02012:14
#02018:0014
#02010:41
#02114:14000024
#02118:0014000000000000
#02113:00140000
#02119:0000001400000000
#02112:0014
#0211a:0000000000140000
#0221a:14
#02218:0014
#0261a:14
#02614:0014
#02312:14
#02316:00140000
#0231a:0014
#0251a:14
#02516:00140000
#02512:00002424
#02414:14
#02412:0014
#0281a:14
#02814:0014
#02918:14000024
#02914:0014000000000000
#02919:00140000
#02913:0000001400000000
#0291a:0014
#02912:0000000000140000
#03014:14
#0301a:00140000
#03013:0014
#03019:00000014
#03010:41
#03112:14
#03118:00140000
#03218:14
#03212:00140000
#03219:0014
#03213:00000014
#0331a:14
#03314:00140000
#03412:14
#03418:00140000
#03414:0014
#0341a:00000014
#03512:14
#03518:00140000
#03514:0014
#0351a:00000014
#03612:14
#0361a:0014
#03616:00140014
#06712:0000000000000014
#06713:00000034
#06714:00340000
#07014:00000014
#07012:16
#07018:00160000
#0681a:00000014
#06914:14
#06918:00140000
#0691a:0014
#06912:0014
#00312:26
#04912:26
#06112:26
#06114:00260000
#06116:0026
#06118:00000026
#06518:26
#06516:00260000
#06514:0026
#06512:00000026
#07518:0000000000260000
#07512:00000026
#01912:24
#01916:00240000
#0191a:0024
#0271a:24
#02716:00240000
#02712:0024
#03712:26
#00352:0000001600000000
#0135a:00000014
#01452:54
#01454:0054
#01852:64
#01858:0064
#01552:0014
#03858:16
#04155:00000016
#04252:16
#04652:16
#04952:0000001600000000
#0505a:54
#05057:0000002400000000
#05252:64
#05457:0000002400000000
#0545a:54
#05652:64
#05655:0000002400000000
#05858:16
#06252:16
#06658:16
#07158:54
#07154:0000000000000064
#07252:00540000
#07558:0000000000160000
#07552:00000016
#01658:54
#0165a:0054
#02052:64
#02058:0064
#0225a:64
#02258:0064
#0265a:54
#02654:0054
#0235a:0014
#02454:64
#02452:0064
#0285a:54
#02854:0054
#0305a:00140000
#03059:00000014
#03158:00140000
#03752:0000001600000000
#03252:00140000
#03253:00000014
#03354:00140000
#03458:00140000
#0345a:00000014
#03558:00140000
#0355a:00000014
#06752:0000000000000064
#06856:0014
#07352:00000014
#07354:0000006400000000
#07052:16
#07058:00160000
#000380:14
#0003a0:00000024
#001340:14
#001320:00000024
#002380:14
#0023a0:00000024
#003320:1600562600000000
#003340:00560036000000000000000000000000
#0043a0:00001424
#005320:00001424
#0063a0:00001424
#008340:00001424
#009380:00001424
#010340:00001424
#0123a0:14000054000000000054005400000000
#012380:00000000005400540000000000540054
#0133a0:00540054000000000054000024000000
#013380:00000000005400540000000000000000
#014320:1400000000000024
#014340:0000003434000000
#016380:1400000000000024
#0163a0:0000003434000000
#018320:14
#018340:0000002400000000
#018380:0014
#0183a0:0000000000000024
#0193a0:00001424
#020320:14
#020340:0000002400000000
#020380:0014
#0203a0:0000000000000024
#0223a0:1400000000000024
#022380:0000003434000000
#024340:1400000000000024
#024320:0000003434000000
#0263a0:14
#026380:0000002400000000
#026340:0014
#026320:0000000000000024
#027320:00001424
#0283a0:14
#028380:0000002400000000
#028340:0014
#028320:0000000000000024
#031320:00001424
#0333a0:00001424
#037320:1600562600000000
#037340:00560036000000000000000000000000
#0413a0:14
#041370:00350000
#041390:0035
#041350:00000026
#045320:1435
#045350:00350035
#046320:26
#049320:1600562600000000
#049340:00560036000000000000000000000000
#0503a0:14000024
#050370:0000005400000000
#052320:14
#052360:00000024
#0543a0:14000024
#054370:0000005400000000
#056320:14000024
#056350:0000005400000000
#067320:1400000000000034
#067340:00340000
#067350:0034
#067330:00000034
#068360:0024
#071380:14
#0713a0:0034342400000000
#071340:0000000000000014
#072320:0034340000000000
#072340:00000024
#073340:0000001400000000
#073320:0000000000342400
#074380:16000056000000000056005600000000
#074360:00000000005600560000000000560056
#075380:00560056000000000056260000000000
#075360:00000000005600560000000000000000
