This file was generated by Ched 2.7.0.0.
#TITLE ""
#ARTIST ""
#DESIGNER ""
#DIFFICULTY 0
#PLAYLEVEL
#SONGID ""
#WAVE ""
#WAVEOFFSET 0
#JACKET ""
#REQUEST "ticks_per_beat 480"
#00002: 4
#BPM01: 182
#00008: 01
#TIL00: ""
#VOLUME: ""
#HISPEED 00
#MEASUREHS 00
#0011a:14
#00214:14
#00318:14
#00412:14
#0051a:14
#00614:14
#00718:14
#00812:14
#0091a:14
#00910:41
#0101a:14
#01114:14
#01214:14
#01318:14
#01418:14
#01512:14
#01612:14
#0171a:14
#01712:0026
#01818:16
#01812:0016
#01810:41
#02012:16
#02018:0016
#02218:16
#02212:0016
#02318:16
#02312:0016
#02418:16
#02618:1616
#02718:16
#02812:1616
#02810:41
#02912:16
#03018:16
#03212:0014
#03318:0014
#03414:0014
#0351a:0014
#03612:0014
#03718:0014
#03814:0014
#04812:0016
#04818:26
#0481f:21
#04918:16
#04910:41
#05018:0016
#05112:16
#05212:0016
#05318:16
#05312:0016
#05418:16
#05412:0016
#06412:0016
#06418:26
#06512:1616
#06518:00000026
#06618:0016
#06612:26
#06718:1616
#06712:00000026
#06812:0016
#06818:26
#05612:0016
#05718:16
#05818:0016
#05912:16
#06012:0016
#06118:16
#06112:0016
#06110:41
#06218:16
#06212:0016
#0711a:14
#07214:14
#0731a:14
#07414:14
#07518:14
#07612:14
#07718:14
#07812:14
#0311f:0011
#07918:26
#06312:00000026
#07010:41
#019380:1626
#021320:1626
#024320:0016
#025320:3626
#030380:0016
#031380:0026
#0393a0:0014
#0403a0:0024
#041340:0014
#042340:0024
#043380:0014
#044380:0024
#045320:0014
#047320:34240000
#049320:0016
#050320:26
#051380:0016
#052380:26
#055380:1636
#056380:26
#057320:0016
#058320:26
#059380:0016
#060380:26
#063380:1626
#069320:16360000
#070320:0026
#079380:1636260000000000
