This file was generated by Ched 2.7.0.0.
#TITLE ""
#ARTIST ""
#DESIGNER ""
#DIFFICULTY 0
#PLAYLEVEL
#SONGID ""
#WAVE ""
#WAVEOFFSET 0
#JACKET ""
#REQUEST "ticks_per_beat 480"
#00002: 4
#BPM01: 83
#00008: 01
#TIL00: ""
#VOLUME: ""
#HISPEED 00
#MEASUREHS 00
#0011a:14
#0021a:14
#00312:14
#00310:41
#00412:14
#00518:14
#00618:14
#00714:14
#0121a:14
#01314:14
#01418:14
#01410:41
#01512:14
#0161a:14
#01714:14
#01818:14
#01912:14
#02518:0014
#02618:0016
#02612:26
#0261f:21
#02610:0041
#02712:1616
#02818:16
#02812:0016
#02918:1616
#03012:2616
#03118:1616
#03312:0016
#03518:0016
#0381a:14
#04012:0000001400000000
#0201f:11
#03612:26
#00810:41
#03210:41
#03710:41
#04052:0000006400000000
#008380:14
#0093a0:24
#010340:14
#011320:24
#0203a0:1400003400000000
#0213a0:24
#022340:14
#023320:34
#024340:34
#025320:24
#032320:1636
#033320:26
#034380:1636
#035380:26
#036320:1635
#037320:24
#039340:14
#039330:0034
#040320:3400003400000000
#043320:23
