This file was generated by Ched 2.7.0.0.
#TITLE ""
#ARTIST ""
#DESIGNER ""
#DIFFICULTY 0
#PLAYLEVEL
#SONGID ""
#WAVE ""
#WAVEOFFSET 0
#JACKET ""
#REQUEST "ticks_per_beat 480"
#00002: 4
#BPM01: 210
#00008: 01
#TIL00: "103'240:10000, 103'480:1"
#VOLUME: ""
#HISPEED 00
#MEASUREHS 00
#00815:1313000000000013
#0081b:00130000
#00812:0000001313001300
#00818:0000000000130000
#01114:0014001400000000
#01118:14141400
#0201b:00001313
#02015:00000000000000000013000000000000
#02018:0000000000130000
#02012:24000000140000000000001300000000
#02016:0014001400000000
#0201a:24
#0231b:0023230013000000
#02312:00001313
#02315:00002300230000000000000000000053
#0231a:00000000000000000053000000000000
#02319:0000000000530000
#02318:00000000000000000000005300000000
#02317:00000053
#02313:00000000000000000000000000530000
#02314:0000000000000053
#02417:00130000
#0241b:1313
#02415:00000013
#02418:0000000000000013
#02412:00130000
#02416:5313
#02410:41
#02512:0013000000001300
#02515:00130000
#02518:0000001300000000
#0251b:0013
#02516:00001414
#0261b:1300000000000013
#02616:14000000000000000000000000000013
#02612:00000000000000140000000000000000
#0271b:13
#02717:0013
#0321b:1313000000001300
#03215:00000000130013000000001300000000
#03218:00000000000000001300130000000053
#0321a:00000000000000000000000000530000
#03219:0000000000000053
#04415:13
#04416:00000000000000000000001400000000
#0441a:0000530000000014
#0441b:00000013000000000000000000000000
#04412:00000053000000001400000000000000
#04414:00530000000000000000000000000000
#04413:0053000000000000
#04419:00000000005300000000000000000000
#04418:0000005353000000
#04417:00000000000000530000000000000000
#0491b:0000000000000013
#04912:00000013000000000000000000000000
#04916:0000000000000013
#05118:0013001300000000
#05115:00130000
#0511b:2313
#05112:0013
#05215:0013000000130000
#05218:00130013
#0521b:0000001300000013
#05212:1313
#05312:13
#0531b:0023
#05318:000023
#05315:000000000023
#05415:00001300000013000000001300000000
#05418:0000130000131300
#05412:2300000013000013
#0541b:0013
#0551b:13
#06517:0000130000001313
#0651b:0013
#06512:2400130000001313
#06516:0013
#0651a:24
#0651f:21
#0661b:0013130000001300
#06616:00000013000000000000000000000000
#06615:0000001300001300
#06618:0013
#06612:0013
#06610:0041
#06715:00001300000000000000001300000000
#06718:0000130000131300
#0671b:0000001300000000
#06712:0000000013000013
#06815:0013000000000000
#06812:0000001300000000
#0681b:0013
#07212:1300000000130000
#07215:00000000000000130000000000001300
#0721b:00130000
#07218:0000001300000000
#07318:0000131300000000
#0731b:00001313
#07316:00000013
#07317:0000000000000013
#07312:2400000013000013
#0731a:24
#07416:0013000000001300
#0741b:00000013000000001300000013000000
#07412:00131300
#07418:0000001300000000
#07515:00001300000000000000001300000000
#07518:0000130013131300
#0751b:0000001300000023
#07512:0000000013000023
#07618:0013000000130000
#07615:00000013000013000000000000001300
#07718:0000130000130000
#07715:00000013000000001300000013000000
#07712:2400001300000013
#0771b:0000001300000013
#0771a:24
#07815:00131300
#07818:0000001300000000
#07812:00000023
#0781b:00000023
#0791b:0013000000000000
#07918:00000000130000002300001300001300
#07915:0000001300131300
#07912:00230000
#08115:00000013000013000000000000001300
#08118:00000000130000000000130000000013
#0811b:23001323
#08112:23001323
#08215:1313
#08218:0013001300000013
#0821b:00130013
#08212:00130000
#08312:00000000130000000000001300000000
#08315:23000000000013000013000000130000
#0831b:00001313
#08318:0000000000130013
#08310:41
#08418:00000000000013000013000000000000
#08415:0000000013130000
#0841b:0000000000001313
#08412:00002400240000000000000000130013
#0841a:00000024000000000000000000000000
#0851b:13
#08518:00000000000000000000002300001300
#08517:00130000
#08512:0013
#08515:0000000000232313
#08618:0000001300000000
#0861b:00000023000000001300000000000000
#08615:00000013
#08612:0023230013000000
#0871b:13131300
#08718:0013000000131300
#08715:00000000000013000000001300001300
#08712:00131300
#08815:0000001313000013
#08818:00000000000000130000000013000000
#0881b:0000000000130000
#0881a:24240000
#08812:24240000
#08915:00000013000000000000130013001300
#08918:00001300130013000000001300002300
#08912:2323
#0891b:2323
#09018:00001300130000000000001300000000
#09012:00000013000000001300000000001300
#09015:0000001300131300
#0901b:0000000013000013
#09112:0013000013000000
#0911b:0000131300000000
#09118:0000000000131313
#09115:00000000000000000000001300002300
#09114:00000053000000000000000000000000
#09116:00530000
#09119:00000000000000530000000000000000
#09117:0053
#09217:00000013
#09219:0000000000000013
#09215:0013230000000000
#0921b:00000013000000002300000000000000
#09218:0000001300000000
#09212:00002313
#09214:0000000000000013
#0931b:13000013
#09316:13000013
#09312:0000000000000013
#09317:0000000000000013
#09417:00130013
#09419:0000001300000000
#09412:00130013
#09414:0000001300000000
#09416:0023
#0941b:0023
#0961b:13
#09612:13
#0001b:0000000000000013
#00012:0000000000000013
#00018:23
#00015:23
#00218:0000000000000013
#00215:0000000000000013
#0021b:23
#00212:23
#0041b:0013
#00415:23
#00418:23
#00512:0013
#00515:23
#00618:0013
#0061b:23
#00612:0023
#00712:00130023
#0071b:00230013
#00715:23
#00718:0023
#00918:1313000000000013
#00912:00130000
#0091b:0000001313001300
#00915:0000000000130000
#01015:1313000000000013
#0101b:00130000
#01012:0000001313001300
#01018:0000000000130000
#01215:1313000000000013
#01218:0000130000130000
#01212:0000001313001300
#0121b:2323
#01210:41
#01318:1313000000000013
#01315:0000130000130000
#0131b:0000001313001300
#01312:2323
#01612:2400140000140000
#0161a:2414001400001400
#01616:0000000014000014
#0171a:2400140000140000
#01712:2414001400001400
#01716:0000000014000014
#01816:0000140014001414
#0181a:2414001400000000
#01812:2400000000140000
#01916:0000140014001414
#01912:2414001400000000
#0191a:2400000000140000
#02112:24001313
#02118:00000000000000000013000000000000
#02115:0000000000130000
#0211b:00000000000000000000001300000000
#02116:0014001400000000
#0211a:00140000
#02816:00130000
#02812:1313
#02818:00000013
#02815:0000000000000013
#0281b:00130000
#02817:0013
#0291b:0013000000001300
#02918:00130000
#02915:0000001300000000
#02912:0013
#02916:00001414
#03014:1200000012000012
#03016:00001200000000000000001200000000
#03018:0000120000121200
#0301a:0000001200000000
#0311c:12
#03112:0000000000152c00
#03114:0028
#03312:1313000000001300
#03318:00000000130013000000001300000000
#03315:00000000000000001300130000000053
#03317:53
#03313:00000000000000000000000000530000
#03314:0000000000000053
#0341b:1313000000001300
#03415:00000000130013000000001300000000
#03418:00000000000000001300130000000053
#03416:53
#0341a:00000000000000000000000000530000
#03419:0000000000000053
#03519:0013000000130000
#03514:0000001300000000
#0351b:00230023
#03517:5323
#03512:2323
#03516:00230023
#03612:1313000000001300
#03618:13000000130013000000001300000000
#03615:00000000000000001300130000000053
#03610:41
#03613:00000000000000000000000000530000
#03614:0000000000000053
#0371b:1313000000001300
#03715:00000000130013000000001300000000
#03718:00000000000000001300130000000053
#03716:53
#0371a:00000000000000000000000000530000
#03719:0000000000000053
#04017:13
#0411a:0014
#04116:00000000000000000000001400000000
#04112:0000000000000014
#04216:13
#04312:0014
#04316:00000000000000000000001400000000
#0431a:0000000000000014
#04512:1300000014000014
#04518:00000013000000000000000000000000
#04516:00000000000000000000001400000000
#04513:00530000000000000000000000000000
#04514:0053000000000000
#04519:00535300
#0451a:00000000005300530000000000000000
#04515:00000053000000000000000000000000
#0451b:0000005300000000
#0471b:13001353
#04712:0000005300001300
#04715:0000000000001300000000000000000000000000000000000000005300530000
#04710:41
#0471a:0000530000000000000000000000000000530000000000530000000000000000
#04719:00005300000000000053005300000000
#04718:0000000000005300000000000000000000000053005300000000000000000000
#04717:0000000000530000
#04713:0000000000000000000053000000530000000000000000000053000000000053
#04714:00000000530000005300000000530053
#04716:0000000000000053
#04818:13
#0481b:0000001300000000
#04815:00000013
#0481f:11
#04812:53
#06012:2313130000000000
#06018:0000231313000000
#06015:0000000023131300
#0601b:0000000000002313
#0611b:1300000000002313
#06112:2313130000000000
#06118:0000231313000000
#06115:0000000023131300
#0621b:13
#06216:12000000000000001200001200001200
#06218:0012000000121200
#06214:00120000
#0621a:0000001200000000
#06418:12
#06416:12
#06916:0000130000001313
#06912:2413
#0691b:0000130000001313
#06917:0013
#07012:0013130000002300
#07017:00000013000000000000000000000000
#07018:0000001300002300
#07015:0013
#0701b:0013
#07118:00001300000000000000001300000000
#07115:0000130000131300
#07112:0000001300000000
#0711b:0000000013000013
#09712:0013000000000000
#0971b:00130000
#09718:0000001300131300
#09715:00000000000000001300001300001300
#09812:2313000000000000
#0981b:23130000
#09818:0000001300131300
#09815:00000000000000001300001300001300
#09912:2313000000000000
#0991b:23130000
#09918:0000001300131300
#09915:00000000000000001300001300001300
#10215:00130000
#10212:23
#10218:00230000
#10217:63
#04618:13
#04616:00000000000000530000001400000000
#04612:00000013000000000000000000001400
#0461a:0053000014000000
#04619:00530000000000000000000000000000
#04613:00530000
#04614:00000000005300000000000000000000
#0461b:00000053000000000000000000000000
#04615:0000005353000000
#09515:0000230000132300
#09518:00002300000023000000001300002300
#0951b:2323
#09512:0023
#0141b:2323
#01418:0000230000002323
#01412:0000230000002323
#01415:2323
#0151a:0024
#0151b:0023230000000000
#01515:0023230000000000
#01512:0024
#02218:0000230000002323
#0221b:2323
#02212:0000230000002323
#02215:0023
#0381b:00000000000000000000000000000000236363636300000000000000000000000000000000000000000000000000000023000000000000002300000000000000
#03818:0023
#03812:23636363630000000000000000000000000000000000000000000000000000002363636363000000000000000000000000000000000000000000000000000000
#03815:0000230000002323
#03817:53
#03918:0023230000000000
#0391a:0024
#03912:0023230024000000
#05015:000023
#05018:000000000023
#08012:23
#0801b:23
#05615:26
#1001b:2323000023000000
#10012:00230023000000000000000023002300
#10018:0000000000000000230000002300000000000063000000000000230000002300
#10015:00000000002300230000000000000000
#1001a:0000000000000000000000000000000000630000000000000000000000000000
#10019:00000000000000000063000000000000
#10017:0000000000630000
#10112:24646464640000002300000000000000
#1011a:00000000246464646400000000630000
#1011b:00000023
#10113:00000000000000000063000000000000
#10114:0000000000630000
#10115:00000000000000000000006300000000
#10116:00000063
#10119:0000000000000063
#10118:00000000000000000000000000000063
#1031b:00630000
#10312:00630000
#0005b:0000000000000023
#00052:0000000000000023
#00058:53
#00055:53
#00258:0000000000000023
#0025b:53
#00255:0000000000000023
#00252:63
#00458:53
#0045b:0023
#00555:53
#00552:0023
#00658:0023
#0065b:63
#00752:00230000
#0075b:00000023
#00755:53
#00758:0053
#01158:14141400
#01552:0014
#0155a:0014
#0205b:00000053
#02152:00000063
#02458:0000000000000053
#02556:00001414
#02656:54
#02652:00000000000000240000000000000000
#02757:0023
#0275b:53
#02855:0000000000000063
#02956:00001414
#0315c:52
#03154:0018
#03152:0000001c
#0395a:0014
#03952:0014
#03552:1313
#0355b:00130013
#04858:53
#0485b:0000002300000000
#04855:00000053
#04952:00000023000000000000000000000000
#04956:0000000000000053
#0495b:0000000000000053
#05352:53
#0555b:53
#06458:52
#06456:52
#06452:00000014
#0645a:00000014
#06552:1400000000000053
#0655a:14
#0665b:00000053
#06655:00000053
#0685b:0053
#0695b:0000000000000063
#06952:14
#07252:53
#07352:1413
#0735b:0013
#07357:0000000000000053
#0735a:14
#07456:00000053
#0745b:00000053
#07552:0000000000000053
#0775b:0000000000000053
#07752:14
#0775a:14
#0805b:53
#08052:53
#08058:00000013
#08055:00000013
#08255:0013
#08358:0000000000000053
#0855b:53
#08557:00230000
#08558:0000000000000053
#08652:0053
#0865b:0053
#08655:00000053
#08955:0000000000000053
#0905b:0000000000000053
#09158:0000000000000063
#0935b:53
#09356:53
#09352:0000000000000053
#09357:0000000000000053
#09452:00000053
#09456:0013
#0945b:0013
#0965b:53
#09652:63
#10255:00530000
#10258:00530000
#05655:16
#07052:00000053
#07058:00000053
#07852:00000053
#0785b:00000053
#09252:0013
#0925b:0013
#000380:13
#0003b0:0000000000000053
#001380:00000023
#000351:13
#000321:0000000000000053
#001351:00000023
#0023b1:13
#002381:0000000000000053
#0033b1:00000023
#002320:13
#002350:0000000000000053
#003320:00000023
#004380:13
#0043b0:0053
#005380:23
#005351:13
#005321:0053
#006351:23
#0063b0:13
#006380:0053
#0073b0:23
#007351:1323
#007321:00530000
#007380:0013
#0073b0:00000053
#008380:23
#0203b0:00000013
#021380:23
#021320:00000013
#022350:23
#024380:0000000000000013
#0253b0:0023000000000000
#026360:1400000000000024
#026320:00000000000000540000000000000000
#0273b0:13
#027370:0053
#0283b0:23
#028350:0000000000000013
#029320:0023000000000000
#0313c0:12
#031340:0028
#040320:1300003323000000
#040360:00000033000000000000000000000000
#0403b1:0000000013000033
#040371:00000000000000000000003300000000
#0413b1:23
#041360:1300003323000000
#041320:00000033000000000000000000000000
#0423b0:1300003323000000
#042370:00000033000000000000000000000000
#042321:0000000013000033
#042361:00000000000000000000003300000000
#043321:23
#043370:1300003323000000
#0433b0:00000033000000000000000000000000
#048380:13000023
#0483b0:0000005300000000
#048351:00000013
#049321:00000053000000000000000000000000
#049361:0000000000230000
#0493b0:0000000000130033
#050370:0023
#049361:0000000000000013
#050321:0023
#053321:13
#053361:0023
#0553b1:13
#056351:26
#056320:1323
#056381:0013
#057381:23
#057350:1323
#0573b1:0013
#0583b1:23
#058320:1323
#058381:0013
#059381:23
#059350:1323
#0593b1:0013
#0603b1:23
#063381:1252525252525252
#063391:00520052005200520052005200520052
#064381:32
#0643a1:00000024
#064360:12
#064320:00000024
#065320:0000000000000013
#066360:0023000000000000
#0663b0:00000013
#067380:23
#066351:00000013
#067321:23
#0683b1:1323000000000000
#068381:0000132300000000
#0683b1:0013
#069361:24
#0693b1:0000000000000013
#070371:0023000000000000
#070321:00000013
#071351:23
#070380:00000013
#0713b0:23
#072320:13
#072360:00230000
#072380:0000000013230000
#0723b0:0000000000001323
#073370:0000000000000013
#0743b0:0023000000000000
#074360:00000013
#075320:23
#0743b1:00000013
#075371:23
#075321:0000000000000013
#076351:0023000000000000
#0763b1:0000132300000000
#076321:0000000013230000
#0763b1:0000000000001323
#0773b1:0000000000000013
#078381:00230000
#078321:00000013
#079351:23
#0783b0:00000013
#079380:23
#0803b0:13
#080380:00000000000000003333333323000000
#080321:13
#080351:00000000000000003333333323000000
#083381:0000000000000013
#0843a1:0024000000000000
#0853b1:1323
#085371:00530000
#085381:0000000000000013
#0863b1:0023000000000000
#086321:0013
#086351:00000033
#087321:23
#0863b0:0013
#086380:00000023
#089351:0000000000000013
#090321:0023000000000000
#0903b1:0000000000000013
#091371:0023000000000000
#091381:0000000000000013
#0923b1:0023000000000000
#0933b1:13
#093371:0000000000230000
#093360:13
#093320:0000000000230000
#093320:0000000000000013
#094360:0023000000000000
#093371:0000000000000013
#0943b1:0023000000000000
#094321:00000013
#095361:23
#096321:13
#097351:23
#0963b0:13
#097380:23
#102320:13
#102350:00330000
#103320:53230000
#102381:00130000
#1033b1:53230000
#0239b0:0013
#023970:00000023
#023921:00000013
#024961:23
#0329b1:00000013
#033971:23
#033921:00000013
#034961:23
#0349b1:00000013
#035971:23
#036921:00000013
#037961:23
#0379b1:00000013
#038971:23
#038920:13230000000000000000000000000000
#0389b0:00000000132300000000000000000000
#038920:00000000000000001323000000000000
#044950:13
#044920:00000023000000000000000000000000
#0449b1:00000013000000000000000000000000
#044971:00000000000000530000000000000000
#044981:0023
#045921:13
#045951:00000023000000000000000000000000
#045980:00000013000000000000000000000000
#0459b0:0000005300000000
#045990:0023
#046980:13
#0469b0:00000023000000000000000000000000
#046921:00000013000000000000000000000000
#046961:00000000000000530000000000000000
#046951:0023
#0479b1:13
#047981:00000023000000000000000000000000
#047950:00000013000000000000000000000000
#047920:0000005300000000
#047940:0023
#0479b1:00001323
#047971:0000000000530000
#047920:00000013
#047960:0000000000000053
#048920:23
#091920:0013000000000000
#091960:00230000
#0919b0:0000001300000000
#091970:0023
#1009b0:0013
#100970:0000000000230000
#101920:14240000
#1019a1:00142400
#101920:0013
#101960:00000023
#1019b1:00000013
#102971:23
