This file was generated by Ched 2.7.0.0.
#TITLE ""
#ARTIST ""
#DESIGNER ""
#DIFFICULTY 0
#PLAYLEVEL
#SONGID ""
#WAVE ""
#WAVEOFFSET 0
#JACKET ""
#REQUEST "ticks_per_beat 480"
#00002: 4
#BPM01: 210
#00008: 01
#TIL00: "103'240:10000, 103'480:1, 63'0:10000, 63'5:1, 80'0:10000, 80'5:1, 102'480:10000, 102'486:1"
#VOLUME: ""
#HISPEED 00
#MEASUREHS 00
#01116:0014001400000000
#01112:00161600
#01118:1616
#02416:00141414
#0241b:0013
#02412:00130013
#02417:17
#02415:0000000000000013
#02410:41
#02512:0013000016001600
#02515:0000130000130013
#02518:13000000000013000013001300130013
#0251b:0013000000000000
#0321b:1313000013130000
#03212:00000000130013000000000000130013
#03215:13001300000000000013001300000000
#03218:0000131300001313
#0491a:0000000000000014
#04912:0000000000000014
#0511b:0013000000000000
#05115:00130014
#05118:0000001300000000
#05112:0013000013000000
#0511a:0014
#05116:24
#05215:0013000000130000
#05218:00131313
#0521b:0000001300000013
#05212:1313
#05312:140000000024
#05318:13
#05317:00140000
#0531a:0024
#05316:000024
#05416:00001400000014000000001200000000
#0541a:24130000
#05412:2400000013000013
#05418:0000000000121200
#0541b:0000000013000013
#0651b:0000130013001313
#06512:2500130013001313
#06517:0013000000130000
#06516:0000001300000000
#06519:25
#0651f:21
#0661b:00001313000013000000000013000000
#06616:0000140014141300
#06612:0013
#06610:0041
#0671b:0013001300000013
#06717:00131300
#06712:0000130013000013
#06718:00000000000000000000131300000000
#06715:00000013
#06716:0013001300000000
#06812:0013000000000000
#0681b:0000001313131300
#06817:00000000000000000014001400000000
#06819:0000000000000013
#06814:0000000000000013
#0731a:0000141414000000
#07316:0000000000141414
#07312:2500001414000013
#0731b:00000013
#07318:0013000000000000
#07315:00000013000000000000000000000000
#07319:25
#07416:00001414000014000000000000000000
#0741b:00000000130000000000001300000000
#07412:00001316
#07415:00000000000000000013000000000000
#07418:0000000000130016
#07518:0013000000130000
#07515:00000000130000001300001300000000
#07512:0000001300001300
#0751b:1300000013000023
#07516:0000000000000024
#07616:00001414000018000000000000001800
#07612:0000000000180000
#07714:0000001300130000
#07712:2400000013000013
#07719:0000001300130000
#0771b:1300000013000013
#07715:00000013130000000000000013000000
#07718:00000013
#07818:0000130013132600
#0781b:0000001300000000
#07812:0000001300000016
#07815:00000000000000000013001300000000
#07916:00001400000014000000001200000000
#0791b:0013
#0791a:0000000000000014
#07912:2600130026000014
#07918:0000260000121200
#08115:00000013000016000000000000001313
#08112:2400130013132600
#08118:00131600
#0811b:0000000000132300
#0811a:24
#08218:1600001300000000
#08215:0016000000000000
#08212:0000160014000013
#0821a:0014
#0821b:00000013
#08216:0000000000001414
#08318:00130000130000000000130000001300
#08312:23001313
#08315:00001300000000000013000000130000
#0831b:00000013000013000000001300000000
#08310:41
#08418:00000000260013000014000000000000
#08414:0000000014140000
#08412:00002626000013000000000014000014
#0841a:0000000000001414
#08514:0000140000000014
#08512:0000000014240000
#08518:0000000000000014
#0851a:14000024
#08516:00000000000000000000002400000000
#08619:0000001300000000
#08614:0000001300000000
#08618:00000013
#08615:00000013
#0861a:00002424000000000000000000000000
#08616:00240000
#08612:0023
#0861b:0023
#08715:0016001600130000
#0871b:00130000
#08718:00000000000000001600001300001300
#08712:00161316
#08812:26000000260016160000160000000000
#08818:2600260000000016
#08918:00001313000013000000000000002600
#08915:00000000160000000000131316000000
#08912:2323
#0891b:2323
#09018:0013130000000000
#09015:00000016000000000000131613000000
#09014:0000001300000000
#09012:0000000013000014
#0901b:0013
#09019:0000001300000000
#09112:0014000054140014
#09116:00000000540014000000001400002800
#0911a:00000014
#09114:00000054000000540000000000000000
#0921a:0014240024001400
#09218:00000000000000000000140000000013
#09216:00000018000014000000000000000000
#09215:0000000000000013
#09214:00000000000000000014000000000000
#09212:00000000000000000000001400000000
#09416:0000281424001414
#09412:00002424000013000000000014000000
#0941b:0023
#01612:0014140000000000
#01616:0000001400001414
#0161a:0000000014140000
#01618:00000014000000000000000000000000
#01614:00000000000000000014000000000000
#0181a:2414140000001400
#01816:00000014000014000014000000001400
#01812:2400000014141400
#02012:2414140000000000
#02016:00000000000014000014001400000000
#0201a:24000014000000001400140014000000
#0301c:12
#0301a:0012000000000000
#03018:00120000
#03016:0000001200000012
#03014:00001212
#03012:0000000000120000
#03017:00000000000000000000001200000000
#03312:00160000130013000000000000130013
#03318:1616131300001313
#03315:00000000000000000013001300000000
#0331b:0000000013130000
#03412:00001600000000000013001300000000
#03415:00000000130013000000000000130013
#03418:1600000013130000
#0341b:0000131300001313
#03515:0013231300000000
#03518:26000000260000130000130023000000
#03512:00002626
#06015:0013001323001300
#06012:23130000
#06018:0000230013130013
#0601b:00000023
#0611b:13000023
#06115:0013001323001300
#06112:23130000
#06118:0000230013130013
#0621c:12
#06212:12
#0621a:0012000000000000
#06214:00120000
#06218:0000001200121200
#06216:00000000000000001200001200001200
#06416:12
#06418:12000000001300130000000000000000
#0641b:00000013000000000000000000000000
#06412:00000013000000000000000000000000
#06415:00000000001300130000000000000000
#09312:14000028
#09318:00000000001400000000000000000000
#0931a:24000000000000000000242400001400
#09714:2212000000000000
#0971a:0000121200000000
#09716:00000000000000001200001200001200
#09718:5200000000121200
#09812:2414000000000000
#0981a:2400141400000000
#09814:00000000000000001400001400001400
#09818:0000000000141400
#09912:26001600000000001600001600001600
#09918:2600161600161600
#0041a:0014
#00412:24
#00416:24
#00516:14
#00512:0014
#00616:14
#0061a:0014
#00612:0024
#00716:00000000140000000014001424001400
#00712:2400000024140000
#0071a:00000000240000000000000000140014
#0081a:0014000000001400
#00816:0000140014140014
#00812:1400001400001400
#00912:0014000000001400
#00916:0000140014140014
#0091a:1400001400001400
#0101a:0014000000001400
#01016:0000140014140014
#01012:1400001400001400
#01216:0014140028001400
#01212:0000001400140000
#0121a:2400000000000014
#01210:41
#01418:00001300000000130000130026000000
#01415:00000013000013000000001300000000
#0141a:24
#01412:2400000023000026
#0141b:00230000
#0131a:1400001400140000
#01316:0014140000001400
#01312:2800000028000014
#0171a:2414140000000014
#01716:00000000000014000000000014000014
#01712:2400000014140000
#01714:00000014000000000000000000000000
#01718:00000000000000000014000000000000
#01912:2414140000001400
#01916:00000014000014000014000000001400
#0191a:2400000014141400
#0211a:0014140000000000
#02116:00000000000014000014001400000000
#02112:24000014000000001400140014000000
#02215:00001300000000130000130000000000
#02218:00000013000013000000001300002600
#0221a:24
#0221b:0023
#02212:00230026
#0231b:00231300
#02317:00002300000000000013000000000000
#0231a:0000000000130000
#02316:00000000230000000000001300000000
#02319:00000013
#02315:00000000000000000000000000130000
#02318:0000000000000013
#02314:00000000000000000000000000000013
#02312:0023000000000000
#02816:14141414
#02812:1313
#0281b:00130013
#02818:0000000000000013
#0291b:0013000000000000
#02918:0000130016131613
#02915:13000000000013000013001300130013
#02912:0013000000000000
#03118:12
#03116:00000000141414140000000000000000
#03112:000000002c1c2c00
#03612:1313000013130000
#0361b:00000000130013000000000000130013
#03618:13001300000000000013001300000000
#03615:0000131300001313
#03610:41
#03718:00160000000000000013001300000000
#03715:0000131300001313
#03712:1616000013130000
#0371b:00000000130013000000000000130013
#04012:28000014000014001400000000000000
#0401a:14000000000000000000001400001400
#04016:0028
#0411a:14
#04116:00000014000000002800000000001400
#04114:0000001400000000
#04112:2814
#04118:00000000000000000000001400000000
#04212:28000014000014001400000000000000
#0421a:14000000000000000000001400001400
#04216:0028
#0431a:14
#04316:00000014000000002800000000001400
#04314:0000001400000000
#04312:2814
#04318:00000000000000000000001400000000
#04418:00130000000000130000000000000000
#04412:23001300000013001400000000140000
#0441b:00000013001300000000000000000000
#04415:00130000
#04416:00000000000000000000001400000000
#0441a:0000000000140014
#04515:00130000000000130000000000000000
#0451b:2313001300000000
#04512:00000013001300000000140000001400
#04518:00130000
#0451a:00000000000000001400000000140000
#04516:00000000000000000000001400000000
#04618:00130000000000130000000000000000
#04612:23001300000013001400000000140000
#0461b:00000013001300000000000000000000
#04615:00130000
#04616:00000000000000000000001400000000
#0461a:0000000000140014
#04715:0000130000000000000000000000130000000000000000540000000000000054
#0471b:2313001300000000
#04712:00000013001300000000140000001400
#04718:00000000130000000054000000540000
#0471a:00001414
#04710:41
#04719:0000000000000000000000000000000000540000000000000054000000000000
#04717:0000000000000000000000000000000000000054000000000000005400000000
#04716:0000000000545454
#04713:0000000000000000000000000000000000000000005400000000000000540000
#04714:00000000000000000000005400000054
#0481a:14
#04816:540000000000000000000000000000000000000000000000000000000000000000000000000000000000000000000000000000000000000000000000000000000000000000000000000000000000000000000000000000000000000000000000000000000000000000000000000000000000000000000000000000000000000000000000000000000000000000000000000000000000000000000000000000000000000000000000000000000000000000000000000000000000000000000000000000000000000000000000000000000000000000000000000000000000000000000000000000000000000000000000000000000000000000000000000000000000000000000000000000000000000000000000000000000000000000000000000000000000000000000000000000000000000000000000000000000000000000000000000000000000000000000000000000000000000000000000000000000000000000000000000000000000000000000000000000000000000000000000000000000000000000000000000000000000000000000000000000000000000000000000000000000000000000000000000000000000000000000000000000000000000000000000000000000000000000000000000000000000000000000000000000000000000000000000000000000000000000000000000000000000000000000000000000000000000000000000000000000000000000000000000000000000000000000000000000000000000000000000000000000000000000000000000000000000000000000000000000000000000000000000000000000000000000000000000000000000000000000000000000000000000000000000000000000000000000000000000000000000000000000000000000000000000000000000000000000000000000000000000000000000000000000000000000000000000000000000000000000000000000000000000000000000000000000000000000000000000000000000000000000000000000000000000000000000000000000000000000000000000000000000000000000000000000000000000000000000000000000000000000000000000000000000000000000000000000000000000000000000000000000000000000000000000000000000000000000000000000000000000000000000000000000000000000000000000000000000000000000000000000000000000000000000000000000000000000000000000000000000000000000000000000000000000000000000000000000000000000000000000000000000000000000000000000000000000000000000000000000000000000000000000000000000000000000000000000000000000000000000000000000000000000000000000000000000000000000000000000000000000000000000000000000000000000000000000000000000000000000000000000000000000000000000000000000000000000000000000000000000000000000000000000000000000000000000000000000000000000000000000000000000000000000000000000000000000000000000000000000000000000000000000000000000000000000000000000000000000000000000000000000000000000000000000000000000000000000000000000000000000000000000000000000000000000000000000000000000000000000000000000000000000000000000000000000000000000000000000000000000000000000000000000000000000000000000000000000000000000000000000000000000000000000000000000000000000000000000000000000000000000000000000000000000000000000000000000000000000000000000000000000000000000000000000000000000000000000000000000000000000000000000000000000000000000000000000000000000000000000000000000000000147400000000000000000000000000000000000000000000000000000000000000000000000000000000000000000000000000000000000000000000000000000000000000000000000000000000000000000000000000000000000000000000000000000000000000000000000000000000000000000000000000000000000000000000000000000000000000000000000000000000000000000000000000000000000000000000000000000000000000000000000000000000000000000000000000000000000000000000000000000000000000000000000000000000000000000000000000000000000000000000000000000000000000000000000000000000000000000000000000000000000000000000000000000000000000000000000000000000000000000000000000000000000000000000000000000000000000000000000000000000000000000000000000000000000000000000000000000000000000000000000000000000000000000000000000000000000000000000000000000000000000000000000000000000000000000000000000000000000000000000000000000000000000000000000000000000000000000000000000000000000000000000000000000000000000000000000000000000000000000000
#0481f:11
#06912:2500130013001313
#0691b:0000130013001313
#06916:0013000000130000
#06917:0000001300000000
#06919:25
#07012:00001313000013000000000023000000
#07016:0000140014140000
#0701b:0013
#07017:00000023
#07112:0013001300000013
#07116:0014141414000000
#0711b:0000130013000013
#07115:00000000000000000000131300000000
#07118:00000013
#09518:0000000000120000
#09516:00000000000000000000001200000000
#0951a:2424242424002424
#09512:0024242424002424
#09612:1200000000521200
#09613:0000000012000000000000000000000000000052000000000052000000000000
#0961b:0000000000001200000000000000000000000000000000520000000000520000
#09614:00000000120000000052000000520000
#0961a:00000000001200000000005200000052
#09615:0000000000000000000000001200000000520000000000000000005200000000
#09619:0000000000000000000000000000120000000000005200000000000000000052
#09616:0000000012000052
#0961c:00120000000000000000000052001200
#09618:0000000000120000
#0551b:13
#05515:00000015
#05512:13
#0151a:0024
#0151b:0023000000000000
#01512:00232400
#01516:0023000000000000
#01517:00230000
#01518:00000023
#01515:00000023
#03812:2600000026000023
#0381b:00000023
#03818:00260000
#03816:0000660000000000006600000000000000006600000000002400000024000000
#03813:00660000000000000000000000000000000000000000000000000000000000000066000000000000000000000000000000000000000000000000000000000000
#03814:0066000000000000000066000000000000660000000000000000000000000000
#03815:00000066000000000000000000000000000000660000000000000000000000000000006600000000000000000000000000000000000000000000000000000000
#03817:00000000000000000000000000000000006600000000000000000000000000000000000000000000000000000000000000000000000000000000000000000000
#0391a:0024
#03912:0023000024000000
#0391b:00230000
#03916:0024240000000000
#0001b:23
#00012:23
#05016:000024
#05012:000000000024
#0501a:000000000024
#00212:23
#0021b:23
#02612:26002600000000000026000000002300
#02618:00260000000000002600260000000000
#0261b:0000000000000023
#0271b:0023232323002300
#02712:0023232323002300
#02719:0000000000000000000000000000000000530000000000000000000000000000
#02717:00000000000000000053000000000000
#02715:0000000000000000000000000000000000000053000000000000000000000000
#02714:0000000000000000000000000000000000000000000000000053000000000000
#02716:00000000000000000000000000530000
#02718:0000000000000000000000000000000000000000000000000000005300000000
#0721a:24240000
#07212:24000000240000000000002300000000
#0721b:0023
#07218:00000000000000000023000000000000
#07215:0000000000232900
#1021b:23
#10215:00230000
#05615:29
#10012:23230000000000002300000063000000
#10018:00002323000000000000000000000000
#10015:0000000000000000230023000000000000000063006300000000000000000000
#1001b:23000000000023230000000000000000
#1001a:0000000000002424
#10016:00000000000000000000630000240024
#10013:0000000000000000000000000000000000630000000000630000000000000000
#10014:00000000000000000063006300000000
#10116:28282828000000000000000000000000
#10112:00000000282828280000002300000023
#1011b:00002323
#10118:00000000000000000023000000230000
#10115:0000000000230023
#0801a:0054
#08018:00000000000000000054000000000000
#08016:0000000000540000
#08014:00000000000000000000005400000000
#08012:0000546c
#10312:00660000
#10318:00660000
#0005b:53
#01158:1616
#01152:00165600
#01552:0014
#0155a:0014
#01558:00000053
#01555:00000063
#0205a:00000054
#02552:00001616
#03152:00001c1c
#0395a:0014
#03952:0014
#03558:16160000
#03552:00001616
#0495a:0000000000000054
#04952:0000000000000054
#05352:54
#05357:00240000
#06456:52
#06452:00000023000000000000000015000000
#0645b:00000023000000000000000000000000
#06458:52000000005300230000000000000000
#06455:00000000005300230000000000000000
#06459:00000015
#06552:1500000000000053
#06559:15
#06656:00000053
#0665b:00000053
#07352:1514
#0735a:0014
#07356:0000000000000054
#07359:15
#07452:00000056
#07458:0000000000000026
#07556:0000000000000054
#07752:1400000000000063
#0775b:63
#0825a:0014
#08252:0014
#08358:0000000000000053
#08554:0000240000000064
#0855a:54
#09352:54
#09358:00000000002400000000000000000000
#0935a:0000000000000054
#00252:63
#00456:54
#0045a:0024
#00556:54
#00552:0024
#00656:54
#0065a:0024
#02152:00000064
#02958:00001616
#0485a:54
#04856:000000000000000000000000000000000000000000000000000000000000000000000000000000000000000000000000000000000000000000000000000000000000000000000000000000000000000000000000000000000000000000000000000000000000000000000000000000000000000000000000000000000000000000000000000000000000000000000000000000000000000000000000000000000000000000000000000000000000000000000000000000000000000000000000000000000000000000000000000000000000000000000000000000000000000000000000000000000000000000000000000000000000000000000000000000000000000000000000000000000000000000000000000000000000000000000000000000000000000000000000000000000000000000000000000000000000000000000000000000000000000000000000000000000000000000000000000000000000000000000000000000000000000000000000000000000000000000000000000000000000000000000000000000000000000000000000000000000000000000000000000000000000000000000000000000000000000000000000000000000000000000000000000000000000000000000000000000000000000000000000000000000000000000000000000000000000000000000000000000000000000000000000000000000000000000000000000000000000000000000000000000000000000000000000000000000000000000000000000000000000000000000000000000000000000000000000000000000000000000000000000000000000000000000000000000000000000000000000000000000000000000000000000000000000000000000000000000000000000000000000000000000000000000000000000000000000000000000000000000000000000000000000000000000000000000000000000000000000000000000000000000000000000000000000000000000000000000000000000000000000000000000000000000000000000000000000000000000000000000000000000000000000000000000000000000000000000000000000000000000000000000000000000000000000000000000000000000000000000000000000000000000000000000000000000000000000000000000000000000000000000000000000000000000000000000000000000000000000000000000000000000000000000000000000000000000000000000000000000000000000000000000000000000000000000000000000000000000000000000000000000000000000000000000000000000000000000000000000000000000000000000000000000000000000000000000000000000000000000000000000000000000000000000000000000000000000000000000000000000000000000000000000000000000000000000000000000000000000000000000000000000000000000000000000000000000000000000000000000000000000000000000000000000000000000000000000000000000000000000000000000000000000000000000000000000000000000000000000000000000000000000000000000000000000000000000000000000000000000000000000000000000000000000000000000000000000000000000000000000000000000000000000000000000000000000000000000000000000000000000000000000000000000000000000000000000000000000000000000000000000000000000000000000000000000000000000000000000000000000000000000000000000000000000000000000000000000000000000000000000000000000000000000000000000000000000000000000000000000000000000000000000000000000000000000000000000000000000000000000000000000000000000000000000000000000000000000000000000000000000000545400000000000000000000000000000000000000000000000000000000000000000000000000000000000000000000000000000000000000000000000000000000000000000000000000000000000000000000000000000000000000000000000000000000000000000000000000000000000000000000000000000000000000000000000000000000000000000000000000000000000000000000000000000000000000000000000000000000000000000000000000000000000000000000000000000000000000000000000000000000000000000000000000000000000000000000000000000000000000000000000000000000000000000000000000000000000000000000000000000000000000000000000000000000000000000000000000000000000000000000000000000000000000000000000000000000000000000000000000000000000000000000000000000000000000000000000000000000000000000000000000000000000000000000000000000000000000000000000000000000000000000000000000000000000000000000000000000000000000000000000000000000000000000000000000000000000000000000000000000000000000000000000000000000000000000000000000000000000000000000
#0515a:0064
#05155:00000024
#0695b:0000000000000063
#06952:15
#06959:15
#07252:14140000
#0725a:14140000
#07255:00000019
#04452:0014
#04456:00000000000000000000001400000000
#0445a:0000000000000014
#0455a:0014
#04556:00000000000000000000001400000000
#04552:0000000000000014
#04652:0014
#04656:00000000000000000000001400000000
#0465a:0000000000000014
#07656:0000004800000048
#07652:0000000000380000
#08052:0000001c
#08658:00000053
#08655:00000063
#0865b:0013
#08652:0013
#08752:00000016
#08852:3600360000360000
#08858:4600460000000046
#08955:00360046
#09152:0000000000000054
#09452:00000054
#09456:0000000014000024
#0945b:0013
#1025b:53
#09754:12
#09852:14
#0985a:14
#09958:16
#09952:16
#04052:18
#04056:0018
#04152:18
#04156:0018
#04252:18
#04256:0018
#04352:18
#04356:0018
#05655:49
#0555b:53
#05555:00000025
#06052:13
#06058:00130000
#06055:0013
#0605b:00000013
#06152:13
#06155:0013
#06158:00130000
#0615b:00000013
#07852:0000000000000026
#07858:00000056
#07052:00000053
#07057:00000053
#0925a:00141400
#0003b0:13
#001350:00000023
#000321:13
#001321:00000023
#002321:13
#003381:00000023
#0023b0:13
#0033b0:00000023
#004360:14
#0043a0:0054
#005360:34
#005320:0054
#006360:34
#0063a0:0054
#007360:24
#011320:0016
#012360:24
#015380:00000013
#0163a0:24
#015351:00000013
#016321:24
#0203a1:00000014
#021361:24
#021321:00000014
#022361:24
#0483a1:14
#048361:0000000054545454545454545454545454545454545454543400000000000000
#048371:00000000000000000054005400540054005400540054005400540054005400540054005400540054005400540054005400000000000000000000000000000000
#048321:0000000000000000000000000000000000000000000000000000000054545454
#048331:00000000000000000000000000000000000000000000000000000000000000000000000000000000000000000000000000000000000000000054005400540054
#049321:5454545454545454545454545454545454545454240000000000000000000000
#049331:00540054005400540054005400540054005400540054005400540054005400540054005400540054000000000000000000000000000000000000000000000000
#048360:000000000000000000000000000000000000000000000000000000000000000000000000000000000000000000000000000000000000000000000000000000000000000000000000000000000000000000000000000000000000000000000000000000000000000000000000000000000000000000000000000000000000000000000000000000000000000000000000000000000000000000000000000000000000000000000000000000000000000000000000000000000000000000000000000000000000000000000000000000000000000000000000000000000000000000000000000000000000000000000000000000000000000000000000000000000000000000000000000000000000000000000000000000000000000000000000000000000000000000000000000000000000000000000000000000000000000000000000000000000000000000000000000000000000000000000000000000000000000000000000000000000000000000000000000000000000000000000000000000000000000000000000000000000000000000000000000000000000000000000000000000000000000000000000000000000000000000000000000000000000000000000000000000000000000000000000000000000000000000000000000000000000000000000000000000000000000000000000000000000000000000000000000000000000000000000000000000000000000000000000000000000000000000000000000000000000000000000000000000000000000000000000000000000000000000000000000000000000000000000000000000000000000000000000000000000000000000000000000000000000000000000000000000000000000000000000000000000000000000000000000000000000000000000000000000000000000000000000000000000000000000000000000000000000000000000000000000000000000000000000000000000000000000000000000000000000000000000000000000000000000000000000000000000000000000000000000000000000000000000000000000000000000000000000000000000000000000000000000000000000000000000000000000000000000000000000000000000000000000000000000000000000000000000000000000000000000000000000000000000000000000000000000000000000000000000000000000000000000000000000000000000000000000000000000000000000000000000000000000000000000000000000000000000000000000000000000000000000000000000000000000000000000000000000000000000000000000000000000000000000000000000000000000000000000000000000000000000000000000000000000000000000000000000000000000000000000000000000000000000000000000000000000000000000000000000000000000000000000000000000000000000000000000000000000000000000000000000000000000000000000000000000000000000000000000000000000000000000000000000000000000000000000000000000000000000000000000000000000000000000000000000000000000000000000000000000000000000000000000000000000000000000000000000000000000000000000000000000000000000000000000000000000000000000000000000000000000000000000000000000000000000000000000000000000000000000000000000000000000000000000000000000000000000000000000000000000000000000000000000000000000000000000000000000000000000000000000000000000000000000000000000000000000000000000000000000000000000000000000000000000000000000000000000000000000000000000000000000000000000000000000000000000000000000000000000000000000000000000000000000001400000000000000000000000000000000000000000000000000000000000000000000000000000000000000000000000000000000000000000000000000000000000000000000000000000000000000000000000000000000000000000000000000000000000000000000000000000000000000000000000000000000000000000000000000000000000000000000000000000000000000000000000000000000000000000000000000000000000000000000000000000000000000000000000000000000000000000000000000000000000000000000000000000000000000000000000000000000000000000000000000000000000000000000000000000000000000000000000000000000000000000000000000000000000000000000000000000000000000000000000000000000000000000000000000000000000000000000000000000000000000000000000000000000000000000000000000000000000000000000000000000000000000000000000000000000000000000000000000000000000000000000000000000000000000000000000000000000000000000000000000000000000000000000000000000000000000000000000000000000000000000000000000000000000000000000000000000000000000000000
#0483a0:0000000000000000000000000000000000000000000000000000000054545454
#048390:00000000000000000000000000000000000000000000000000000000000000000000000000000000000000000000000000000000000000000054005400540054
#0493a0:5454545454545454240000000000000000000000000000000000000000000000
#049390:00540054005400540054005400540054000000000000000000000000000000000000000000000000000000000000000000000000000000000000000000000000
#0493a0:0000000000000000000000000000000000000000145454545454545434000000
#049390:00000000000000000000000000000000000000000000000000000000000000000000000000000000005400540054005400540054005400540000000000000000
#050320:0000000054545454545454545454545424000000000000000000000000000000
#050330:00000000000000000054005400540054005400540054005400540054005400540000000000000000000000000000000000000000000000000000000000000000
#049321:0000000000000014
#0503a1:0000000054545454545454545454545424000000000000000000000000000000
#050391:00000000000000000054005400540054005400540054005400540054005400540000000000000000000000000000000000000000000000000000000000000000
#0513a1:0014
#051351:00000054
#0523a1:24
#053321:1424
#053371:00540000
#0553b1:13
#055351:00000055
#056351:29
#056320:1323
#056351:0013
#057351:23
#057320:13
#057380:0023
#0573b1:0013
#0583b1:23
#058380:1323
#0583b1:0013
#059351:23
#059320:1323
#059351:0013
#060351:23
#063381:125200000000000000000000520000000000000000000000520000000000000000000000520000000000000000000000520000000000000000000000520000000000000000000000520000000000000000000000520000000000000000000000520000000000000000000000520000000000000000000000520000000000000000000000520000000000000000000000520000000000000000000000520000000000000000000000520000000000000000000000520000000000000000000000520000000000000000000000520000000000000000000000520000000000000000000000520000000000000000000000520000000000000000000000520000000000000000000000520000000000000000000000520000000000000000000000520000000000000000000000520000000000000000000000520000000000000000000000520000000000000000000000520000000000000000000000520000000000000000000000520000000000000000000000520000000000000000000000
#063391:00520052005200520052005200520052005200520052005200520052005200520052005200520052005200520052005200520052005200520052005200520052
#064381:32000000005300000000000000000000
#0643b1:00000053000000000000000000000000
#064351:00000000000000530000000000000000
#064391:00000000000000000055000025000000
#064360:12
#064320:00000053000000000055000025000000
#064350:00000000005300000000000000000000
#064380:00000000000000530000000000000000
#065320:0000000000000013
#066360:0024000000000000
#066360:00000013
#067320:23
#0663b1:00000013
#067371:23
#0683b1:13
#068351:0024000000000000
#068321:00130000
#068371:0000002400000000
#0693b1:0000000000000013
#070361:0024000000000000
#070371:00000013
#0713b1:23
#070320:00000013
#071360:23
#073360:0000000000000014
#0743b0:0023000000000000
#074320:00000016
#074380:0000000000000056
#075320:26
#075360:0000000000000014
#076320:0024000000000000
#076320:0000142400000000
#0763a0:0000000014240000
#076320:0000000000001424
#0773b0:13
#077380:00000033230000000000000000000000
#077320:0000000000000013
#078350:00230000
#078380:00000016
#078320:0000000000000056
#079380:26
#080320:145400000000000000000000540000000000000000000000540000000000000000000000540000000000000000000000540000000000000000000000540000000000000000000000540000000000000000000000540000000000000000000000540000000000000000000000540000000000000000000000540000000000000000000000540000000000000000000000540000000000000000000000540000000000000000000000540000000000000000000000540000000000000000000000240000000000000000000000000000000000000000000000000000000000000000000000000000000000000000000000000000000000000000000000000000000000000000000000000000000000000000000000000000000000000000000000000000000000000000000000000000000000000000000000000000000000000000000000000000000000000000000000000000000000000000000000000000000000000000000000000000000000000000000000000000000000000000000000
#080330:00540054005400540054005400540054005400540054005400540054005400540000000000000000000000000000000000000000000000000000000000000000
#0803a1:145400000000000000000000540000000000000000000000540000000000000000000000540000000000000000000000540000000000000000000000540000000000000000000000540000000000000000000000540000000000000000000000540000000000000000000000540000000000000000000000540000000000000000000000540000000000000000000000540000000000000000000000540000000000000000000000540000000000000000000000540000000000000000000000240000000000000000000000000000000000000000000000000000000000000000000000000000000000000000000000000000000000000000000000000000000000000000000000000000000000000000000000000000000000000000000000000000000000000000000000000000000000000000000000000000000000000000000000000000000000000000000000000000000000000000000000000000000000000000000000000000000000000000000000000000000000000000000000
#080391:00540054005400540054005400540054005400540054005400540054005400540000000000000000000000000000000000000000000000000000000000000000
#083381:0000000000000013
#084381:0026000000000000
#0853a1:1424
#085341:00540000
#085341:0000000000000014
#086321:0024000000000000
#086381:00000013
#0873b1:23
#086350:00000013
#087320:23
#088380:0000000016260000
#088320:0000000000001626
#089320:0000000000000016
#090320:0026000000000000
#0903b0:0000000000000013
#0913b0:0023
#091320:0000000000000014
#092360:0024000000000000
#093320:1400000000240000
#093380:00000000005400000000000000000000
#0933a0:0000000000000014
#094360:0024000000000000
#094320:00000014
#094360:0000000000000054
#095320:24
#1023b0:13
#102380:000000000000000000000000000000000000000000000000000000000000000000000000000000000000000000000000000000000000000000000000000000000000000000000000000000000000000000000000000000000000000000000000000000000000000000000000000000000000000000000000000000000000000000000000000000000000000000000000000000000000000000000000000000000000000000000000000000000000000000000000000000000000000000000000000000000000000000000000000000000000000000000000000000000000000000000000000000000000000000000000530000000000000000000000000000000000000000000000000000000000000000000000000000000000000000000000000000000000000000000000000000000000000000000000000000000000000000000000000000000000000000000000000000000000000000000000000000000000000000000000000000000000000000000000000000000000000000000000000000000000000000000000000000000000000000000000000000000000000000000000000000000000000000000000000000000000000000000000000000000000000000000000000000000000000000000000000000000000000000000000330000000053560000000000000000000000000000000000000000000000000000000000000000000000000000000000000000000000000000000000000000000000000000000000000000000000000000000000000000000000000000000000000000000000000000000000000000000000000000000000000000000000000000000000000000000000000000000000000000000000000000000000000000000000000000000000000000000000000000000000000000000000000000000000000000000000000000000000000000000000000000000000000000000000000000000000000000000000000000000000000000000000000000000000000000000000000000000000000000000000000000000000000000000000000000000000000000000000000000000000000000000000000000000000000000000000000000000000000000000000000000000000000000000000000000000000000000000000000000000000000000000000000000000000000000000000000000000000000000000000000000000000000000000000000000000000000000000000000000000000000000000000000000000000000000000000000000000000000000000000000000000000000000000000000000000000000000000000000000000000000000000000000000000000000000000000000000000000000000000000000000000000000000000000000000000000000000000000000000000000000000000000000000000000000000000000000000000000000000000000000000000000000000000000000000000000000000000000000000000000000000000000000000000000000000000000000000000000000000000000000000000000000000000000000000000000000000000000000000000000000000000000000000000000000000000000000000000000000000000000000000000000000000000000000000000000000000000000000000000000000000000000000000000000000000000000000000000000000000000000000000000000000000000000000000000000000000000000000000000000000000000000000000000000000000000000000000000000000000000000000000000000000000000000000000000000000000000000000000000000000000000000000000000000000000000000000000000000000000000000000000000000000000000000000000000000000000000000000000000000000000000000000000000000000000000000000000000000000000000000000000000000000000000000000000000000000000000000000000000000000000000000000000000000000000000000000000000000000000000000000000000000000000000000000000000000000000000000000000000000000000000000000000000000000000000000000000000000000000000000000000000000000000000000000000000000000000000000000000000000000000000000000000000000000000000000000000000000000000000000000000000000000000000000000000000000000000000000000000000000000000000000000000000000000000000000000000000000000000000000000000000000000000000000000000000000000000000000000000000000000000000000000000000000000000000000000000000000000000000000000000000000000000000000000000000000000000000000000000000000000000000000000000000000000000000000000000000000000000000000000000000000000000000000000000000000000000000000000000000000000000000000000000000000000000000000000000000000000000000000000000000000000000000000000000000000000000000000000000000000000000000000000000000000000000000000000000000000000000000000000000000000000000000000000000000000000000000000000000000000
#103380:00260000
#102351:000000000000000000000000000000000000000000000000000000000000000000000000000000000000000000000000000000000000000000000000000000000000000000000000000000000000000000000000000000000000000000000000135300000000000000000000000000000000000000000000000000000000000000000000000000000000000000000000000000000000000000000000000000000000000000000000000000000000000000000000000000000000000000000000000000000000000000000000000000000000000000000000000000000000000000000000000000000000000000000000000000000000000000000000000000000000000000000000000000000000000000000000000000000000000000000000000000000000000000000000000000000000000000000000000000000000000000000000000000000000000000000000000000000000000000000000000000000000000000000000000000000000000000000000000000000000000000000000
#102321:0000000000000000000000000000000000000000000000000000000000000000000000000000000000000000000000000000000000000000000000000000000000000000000000000000000000000000005600000000000000000000000000000000000000000000000000000000000000000000000000000000000000000000000000000000000000000000000000000000000000000000000000000000000000000000000000000000000000000000000000000000000000000000000000000000000000000000000000000000000000000000000000000000000000000000000000000000000000000000000000000000000000000000000000000000000000000000000000000000000000000000000000000000000000000000000000000000000000000000000000000000000000000000000000000000000000000000
#103321:00260000
#0279b0:0013
#027950:0000000000000000000000000000000000000023000000000000000000000000
#027920:00000013
#027980:0000000000000000000000000000000000000000000000000000002300000000
#038920:16
#038960:00260000000000000000000000000000
#038980:00160000
#038940:00000000002600000000000000000000
#038920:0016
#038960:00000000000000000026000000000000
#0479a0:0014
#047960:0000000000240000
#047921:0000000000140000
#047961:00000024
#0479a0:00000014
#047960:0000000000000024
#047921:0000000000000014
#048961:24
#0809a1:0014
#080921:00000024
#091921:0014000000000000
#091961:00240000
#091961:0000001400000000
#091921:0024
#096961:0012
#096921:0000000000220000
#096980:0000000000120000
#0969c0:00000022
#096921:00000012
#096961:0000000000000022
#0969c0:0000000000000012
#097980:22
#100920:00001323
#100960:0000000000530000
