This file was generated by Ched 2.7.0.0.
#TITLE ""
#ARTIST ""
#DESIGNER ""
#DIFFICULTY 0
#PLAYLEVEL
#SONGID ""
#WAVE ""
#WAVEOFFSET 0
#JACKET ""
#REQUEST "ticks_per_beat 480"
#00002: 4
#BPM01: 210
#00008: 01
#TIL00: ""
#VOLUME: ""
#HISPEED 00
#MEASUREHS 00
#0081a:14
#00814:0014
#00918:14
#00912:0014
#0101a:14
#01014:0014
#01118:14
#01112:0014
#0121a:14
#01214:0014
#01210:41
#01318:14
#01312:0014
#01418:1414
#01414:00140014
#01518:14
#01514:00140000
#01612:14
#01618:0014
#01714:14
#0171a:0014
#01812:14
#01818:0014
#01914:14
#0191a:0014
#02012:14
#02018:0014
#02114:14
#0211a:0014
#02214:1414
#02218:00140014
#02314:1414
#02318:00140000
#02312:00000034
#02418:0014
#02410:41
#02514:14
#0251a:0014
#02612:14
#02714:14
#02818:0014
#02914:14
#0291a:0014
#03012:14
#0311a:14
#03218:00140000
#03212:2414
#0331a:1414
#03314:00140000
#03412:1414
#03418:00140000
#03614:00140000
#0361a:2414
#03610:41
#03712:1414
#03718:00140000
#04012:14
#04018:0014
#04114:14
#0411a:0014
#04212:14
#04218:0014
#04314:14
#0431a:0014
#04412:14
#04418:14
#04414:0014
#0441a:0014
#04512:14
#04518:14
#04514:0014
#0451a:0014
#04612:14
#04618:14
#04614:0014
#0461a:0014
#04712:14
#04718:14
#04714:0014
#0471a:0014
#04710:41
#04812:14
#0481f:11
#04915:0014
#0521a:14
#05317:0014
#05618:0014
#05612:24
#05712:14
#05718:0014
#05814:14
#0581a:0014
#05914:14
#0591a:0014
#06018:00140014
#06012:2414
#06114:1414
#0611a:00140014
#06312:14
#06414:14
#06412:00000034
#06614:1414
#06618:00140000
#06610:0041
#0671a:1414
#06714:00140014
#0681a:14
#06818:00340000
#07014:1414
#07018:00140000
#07118:1414
#07112:00140014
#07218:14
#0721a:00340000
#07412:1414
#07418:00140000
#07518:1414
#07514:00140014
#07618:14
#0761a:00340000
#07812:1414
#07818:00140000
#0791a:1414
#07914:00140014
#0801a:14
#08018:00340000
#08312:1414
#08318:00140014
#08310:41
#08412:14
#08414:00343400
#0851a:1414
#08514:00140014
#0861a:14
#08618:00343400
#08712:14
#08718:00140000
#08714:0014
#0871a:00000014
#08818:0014
#08814:00000014
#08812:24
#0911a:1414
#09114:00140014
#0921a:14
#09218:00343400
#09312:14
#09314:00343400
#09418:14
#0941a:00343400
#09514:1414
#09518:00140014
#09612:14
#1021a:00140000
#10217:00000014
#00019:24
#00213:24
#00419:24
#00513:24
#00619:24
#00613:0024
#00719:24240000
#00713:00002424
#06512:24
#0651a:0024
#0651f:21
#06912:24
#0691a:0024
#07314:24
#0731a:0024
#07714:24
#0771a:0024
#08112:26
#08118:0026
#08212:26
#08218:0026
#09812:24
#0981a:24
#09912:2424
#0991a:2424
#1001a:24
#02354:0054
#02452:14
#02458:0014
#02554:14
#0255a:0014
#02652:54
#02754:54
#02852:14
#02858:0014
#02954:14
#0295a:0014
#04852:54
#04955:0024
#0525a:64
#05357:0024
#06352:54
#06454:54
#06552:14
#0655a:0014
#0685a:54
#06858:0014
#06952:14
#0695a:0014
#07258:64
#0725a:0014
#07354:14
#0735a:0014
#07658:54
#0765a:0014
#0805a:64
#08058:0014
#07754:14
#0775a:0014
#08452:54
#0865a:64
#08852:14
#0925a:54
#09352:64
#09458:64
#09652:54
#1025a:00540000
#10257:00000024
#000390:14
#001390:0024
#002330:14
#003330:0024
#004390:1424
#005330:1424
#015380:00001424
#023340:0014
#023320:00000034
#024320:24
#026320:14
#027340:34
#028320:24
#0353a0:14240000
#035340:00001424
#038380:14
#0383a0:0034
#039380:34
#0393a0:0024
#048320:14
#049350:0054
#051320:24
#0523a0:14
#053370:0054
#0553a0:24
#063320:14
#064340:34
#064320:00000034
#065320:24
#0683a0:14
#068380:00342400
#072380:14
#0723a0:00342400
#076380:14
#0763a0:00342400
#0803a0:14
#080380:00342400
#084320:14
#084340:00343424
#0863a0:14
#086380:00343424
#0893a0:14240000
#089340:00001424
#090380:14240000
#090320:00001424
#0923a0:14
#092380:00343424
#093320:14
#093340:00343424
#094380:14
#0943a0:00343424
#096320:14
#097340:24
#1003a0:14
#100380:0034
#1013a0:34
#101380:0034
#1023a0:34340000
#102370:00000054
#1033a0:00240000
