This file was generated by Ched 2.7.0.0.
#TITLE ""
#ARTIST ""
#DESIGNER ""
#DIFFICULTY 0
#PLAYLEVEL
#SONGID ""
#WAVE ""
#WAVEOFFSET 0
#JACKET ""
#REQUEST "ticks_per_beat 480"
#00002: 4
#BPM01: 174
#00008: 01
#TIL00: ""
#VOLUME: ""
#HISPEED 00
#MEASUREHS 00
#00312:1400001600001400
#00318:1600001400001300
#0031b:0000000000000013
#00315:0000000000000013
#00314:0014000000140000
#00316:00141400
#00712:160000000000001c
#00718:0014001600140000
#00716:00141400
#0071a:14000014
#00715:00000013
#00714:0000001400000000
#03116:0000000000000013
#03112:1317000016000000
#0311b:00130000
#03117:0000131700000000
#03118:0000000013160000
#03115:0000000000130000
#03119:0000000000000025
#03217:0013000013000000
#03216:0000001300131300
#03212:00131300
#0371b:0000001300130000
#03716:0013001300130013
#0371a:2400240000000014
#03718:0013
#03712:1300000000000000000000000000000000000000000000002400000000530000
#0371f:21
#03710:0000000000000041
#03714:00000000000000000000000000000000000000000000000000000000000000000000000000000000000000000000000000000000000000000053000000000000
#0381b:0013000013000000
#03817:00000013
#03814:0000001300000000
#03819:0000000000130000
#03812:00240024
#0741b:0000130000130000
#07416:0000001400140000
#07412:2300000013000013
#0741a:24
#07415:00240000
#07417:0024
#07414:00000024
#00412:0013000000001400
#0041b:00130000
#00414:0000001300000000
#0041a:0014
#00416:00131300
#00417:00000013
#0051b:1300000000130000
#00516:1400000000000014
#00512:0000130000000013
#00519:0000001300000000
#00515:0000000013130000
#0061b:0013000013001300
#00615:0000130000130000
#00618:0000001300000000
#00612:00001313
#00816:0000000000140000
#00814:00000000180000000000001400000000
#00812:0000002c00002400
#0081a:00000024
#01115:0013000000130000
#01118:00131300
#0111b:0000001300001300
#01112:2400002400001324
#01116:0000000000000013
#0091b:1300001300001300
#00916:0000131300000000
#00919:0013
#00917:0013000000130000
#00912:2400000000130013
#0091a:0000000000000024
#00910:41
#01012:0000130000131300
#01014:0000001300000000
#0101b:00131300
#01016:13001313
#01017:0013000000000000
#02814:0000000000001515
#02817:00000000330000000000000000150015
#02818:0016
#02819:0000001500000000
#0281a:00140000
#0281b:0013000000000000
#0281f:0011
#02816:0000003300000000
#02912:13
#0291b:1313
#02917:00150000
#02913:00000015
#04012:00130014
#04017:0013000000000000
#0401b:00131300
#04018:00000000000013000000001313000000
#04015:00000000000000131300130000000000
#04016:14
#05316:0000000013130013
#05318:0000001300000000
#05312:2400000000000024
#0531a:24240024
#05310:41
#05412:0014001400002400
#05417:00000013
#0541b:0000000000000013
#05416:0000000000140000
#05414:00241400
#07612:1300000000000013
#07616:0000000000130000
#0761b:0000130000130000
#07614:0000001515001300
#07619:00000013
#07617:00000000000000150000000000000000
#07615:0000000000000029
#08312:0012000000000024
#08314:00120000
#0831c:0000001200000000
#0831a:0000000012001324
#08316:0000001200120000
#08318:00001200000000000000001200000000
#08313:00000013
#02015:0000000000141414
#02017:00000000000000000000001400140014
#0201b:0023000023000000
#02012:00232300
#02016:0000002400000000
#02019:00230000
#02612:13001313
#02618:0013001300130000
#02615:00001300000013000000001300000000
#0261a:00240024
#03012:13000016
#0301b:0013
#03018:00160000
#0341a:1400000000120000
#03414:00000000000000000000001200000000
#03419:00000012
#03415:00000000000000000000000000120000
#03418:0000000000000012
#03416:00000000000000000000000000000012
#03412:00171400
#03917:13
#0391b:0000001300000000
#03916:00000000000013000000000000140000
#03912:0000000013000024
#03918:0000000000140000
#03914:00000000000000000000000000000000000000000000000000000000000000000000000000000000000000001400000000000000000000000064000000000000
#0391a:0000240000002424
#03915:0000000000000000000000000000000000000000000000000000000000640000
#04412:00000000000000000013000000000000
#0441a:0000000000130000
#04413:00000000000000000000001300000000
#04419:00000013
#04414:00000000000000000000000000130000
#04418:0000000000000013
#04415:00000000000000000000000000000013
#0441b:0013
#04416:0023000000000000
#04512:2400241300130024
#04517:0013001300130013
#04515:0013
#0451b:1300000000000000000000000000000000000000000000000000000000530000
#0451a:00000024
#04519:00000000000000000000000000000000000000000000000000000000000000000000000000000000000000000000000000000000000000000053000000000000
#0481a:00000014
#0481b:00130000
#04812:00131300
#04815:00000000000013000000001313000000
#04818:00000000000000131300130000000000
#04816:1413000000000000
#05517:0000000013130013
#05515:0000001300000000
#0551a:0000000000000024
#05512:24240024
#0561b:0013000000000000
#05614:00000013000000002500001300000000
#05612:0000001300000000
#05619:00000000000000130000000025000000
#05617:0000250000130000
#05615:0000000000000013
#05618:00000000000000000000000000000013
#0571b:1313000000001300
#05712:2500131300001300
#05717:00131300
#05718:0000000000000013
#05715:00000000000000000000000000000013
#0571a:0024
#05812:1313000024000000
#0581b:0000131300130000
#05816:00131300
#05815:00000000000000000000130000130013
#05818:0000000000001313
#05819:25
#0591b:1300000013130000
#05912:23000000130013000000000000130000
#05919:0000000000000013
#05915:00000000000000000000000000000013
#05916:00242424
#06014:0000000000120000
#0601a:0000000000120000
#06015:00000012
#06019:00000012
#06018:0000000000000012
#06016:0000000000000012
#06012:2c
#0711b:0000000013130000
#07116:0013
#07117:00000013
#07115:0013000000000013
#07112:00240000
#0721b:0000130000230000
#07212:1300002300000025
#07216:0000000000250000
#07215:0000000000000000000000002500000000000000000000000000000000650000
#07217:0000000000000025
#07213:00530000000000000000000000000000000000000000000000000000000000000000000000000000000000000000000000000000000000000000000000000000
#07214:00005300000000000000000000000000000000000000000000000000000000000000000000000000000000000000000000000000000000000065000000000000
#07314:0000000000001313
#07317:00000000000000000000000000130013
#07312:0000000023130000
#0731b:0000002300130000
#07319:0025000000000000
#07316:0024
#0751b:00001300000000000000000013000013
#07512:0000001313002400
#07517:0000000000130000
#07518:2400000000000013
#07515:00000000000000000000000000130000
#07514:00240000
#07516:0024
#0771b:00001300130013000000000000000013
#07712:0033330014000000
#07718:00000000000000000013000000001400
#07714:0000000000140000
#07719:00000000000000000000001300000000
#07716:00000014
#0771a:00000000000000000000000000130000
#08112:0000002600130000
#08116:0014000000000000
#08119:00130000
#08114:00130000
#08115:0000000000230000
#08118:0000002600000000
#00118:0000121200000000
#00117:0012
#00116:0000000000120000
#00114:00000012
#0011a:1400000000001214
#00112:1400000000000014
#00216:0012001200000000
#00218:0000120012120000
#0021a:00000012
#00214:00000012
#0331a:14
#03312:1414
#03313:00170000
#03316:00000017
#03612:00002c14
#0361a:00000014
#03614:00280000
#03613:0000002a00000000
#0431b:13
#04312:1400240024000024
#04316:0000002400240023
#0431a:0000000000240000
#01216:0014000000000000
#01214:00130000
#01219:00130000
#01217:000000000000000000000000000000000000000000000000000000000000000000000000000000000000000000000000000000000000000000000000000000000000000000000000000000000000000000000000000000000000000000000000000000000000000000000000000000000000000000000000000000000000000000000000000000000000000000000000000000000000000000000000000000000000000000000000000000000000000000000000000000000000000000000000000000000000000000000000000000000000000000000000000000000000000000000000000000000000000000000000000000000000000000000000000000000000000000000000000000000000000000000000000000000000000000000000000000000000000000000000000000000000000000000000000000000000000000000000000000000000000000000000000000000000000000000000000000000000000000000000000000000000000000000000000000000000000000000000000000000000000000000000000000000000000000000000000000000000000000000000000000000000000000000000000000000000000000000000000000000000000000000000000000000000000000000000000000000000000000000000000000000000000000000000000000000000000000000000000000000000000000000000000000000000000000000000000000000000000000000000000000000000000000000000000000000000000000000000000000000000000000000000000000000000000000000000000000000000000000000000000000000000000000000000000000000000000000000000000000000000000000000000000000000000000000000000000000000000000000000000000000000000000000000000000000000000000000000000000000000000000000000000000000000000000000000000000000000000000000000000000000000000000000000000000000000000000000000000000000000000000000000000000000000000000000000000000000000000000000000000000000000000000000000000000000000000000000000000000000000000000000000000000000000000000000000000000000000000000000000000000000000000000000000000000000000000000000000000000000000000000000000000000000000000000000000000000000000000000000000000000000000000000000000000000000000000000000000000000000000000000000000000000000000000000000000000000000000000000000000000000000000000000000000000000000000000000000000000000000000000000000000000000000000000000000000000000000000000000000000000000000000000000000000000000000000000000000000000000000000000000000000000000000000000000000000000000000000000000000000000000000000000000000000000000000000000000000000000000000000000000000000000000000000000000000000000000000000000000000000000000000000000000000000000000000000000000000000000000000000000000000000000000000000000000000000000000000000000000000000000127200000000000000000000000000000000000000000000000000000000000000000000000000000000000000000000000000000000000000000000000000000000000000000000000000000000000000000000000000000000000000000000000000000000000000000000000000000000000000000000000000000000000000000000000000000000000000000000000000000000000000000000000000000000000000000000000000000000000000000000000000000000000000000000000000000000000000000000000000000000000000000000000000000000000000000000000000000000000000000000000000000000000000000000000000000000000000000000000000000000000000000000000000000000000000000000000000000000000000000000000000000000000000000000000000000000000000000000000000000000000000000000000000000000000000000000000000000000000000000000000000000000000000000000000000000000000000000000000000000000000000000000000000000000000000000000000000000000000000000000000000000000000000000000000000000000000000000000000000000000000000000000000000000000000000000000000000000000000000000000000000000000000000000000000000000000000000000000000000000000000000000000000000000000000000000000000000000000000000000000000000000000000000000000000000000000000000000000000000000000000000000000000000000000000000000000000000000000000000000000000000000000000000000000000000000000000000000000000000000000000000000000000000000000000000000000000000000000000000000000000000000000000000000000000000000000000000000000000000000000000000000000000000000000000000000000000000000000000000000000
#01212:0000002600000000
#01218:0000002600000000
#0411a:14
#04116:0000130013130013
#0411b:0000000000130013
#04112:00240024
#04912:1400000000130013
#04917:00131300
#04915:00000014
#0491a:00240024
#04216:0013000000000013
#0421b:0013000000130013
#04217:00000013
#04212:1400241300002400
#04219:0013
#02212:00001314
#02218:0013001300130000
#02216:00130000
#02214:0000001300130000
#0221a:00240024
#02418:00000000130000001300001200000000
#02416:0000000000120000
#02415:0013001300000000
#0241b:0000001300000000
#0241a:00000014
#02412:00240024
#02118:0000001300130013
#02112:2300000000000013
#0211a:24240024
#02315:0000001300130013
#02318:6600000000000013
#02312:00000066000000000000000000000000240000000000000000000000000000000000000000000000000000000000000024000000000000000000000000000000
#02316:00660000000000000000000000000000000000000000000000000000000000000000000000000000000000000000000000000000000000000000000000000000
#02314:0066000000000000000000000000000000000000000000000000000000000000
#02518:00000066000000000000000000000000000000000000000013000000000000000000000000000000130000000000000000000000000000001300000000000000
#02515:0000000000000013
#0251a:00240024
#02512:66
#02514:00660000000000000000000000000000000000000000000000000000000000000000000000000000000000000000000000000000000000000000000000000000
#02516:0066000000000000000000000000000000000000000000000000000000000000
#01312:00130013
#01319:0000121200120000
#0131b:0000000000000013
#01316:0000000013000013
#01412:00130013
#01419:0000001300000000
#01416:0013000013000013
#0141b:0000000013000013
#01417:13130013
#0161b:00130013
#01614:0000001300000000
#01617:0013000013000013
#01616:13130013
#01612:0000000013000013
#01615:0000000000130000
#01618:00000000000000000000001300000000
#01512:0000000000000013
#0151b:00130013
#01515:0000121200120000
#01517:0000000013000013
#01712:00130013
#01715:0000001313000013
#01719:00121212
#0171c:0000000000120000
#0171b:0000000000000013
#01812:00130023
#01819:0000001300000000
#01816:0013
#0181b:00001313
#01815:00001300000000000000001300000000
#01817:13130000
#01818:0000000000130000
#01917:0013001300000023
#01912:2424000000140000
#0191a:0000001400000024
#01916:0000000000130000
#01910:41
#05016:00000013
#05017:0000000000000013
#05012:0013000000130013
#0501b:0000001300000000
#05019:13
#05014:13
#0501a:00240024
#0511b:1300001300130000
#05116:13
#05117:0000001300130023
#05115:0013
#0511a:0000000000000024
#05112:00240024
#0521b:00000000000000000013000000130000
#05215:0000000000130000
#05218:00001600000000000000001300000012
#05212:00001613
#05216:0000160000000012
#05214:0000001600000000
#06117:127200000000000000000000000000000000000000000000000000000000000000000000000000000000000000000000000000000000000000000000000000000000000000000000000000000000000000000000000000000000000000000000000000000000000000000000000000000000000000000000000000000000000000000000000000000000000000000000000000000000000000000000000000000000000000000000000000000000000000000000000000000000000000000000000000000000000000000000000000000000000000000000000000000000000000000000000000000000000000000000000000000000000000000000000000000000000000000000000000000000000000000000000000000000000000000000000000000000000000000000000000000000000000000000000000000000000000000000000000000000000000000000000000000000000000000000000000000000000000000000000000000000000000000000000000000000000000000000000000000000000000000000000000000000000000000000000000000000000000000000000000000000000000000000000000000000000000000000000000000000000000000000000000000000000000000000000000000000000000000000000000000000000000000000000000000000000000000000000000000000000000000000000000000000000000000000000000000000000000000000000000000000000000000000000000000000000000000000000000000000000000000000000000000000000000000000000000000000000000000000000000000000000000000000000000000000000000000000000000000000000000000000000000000000000000000000000000000000000000000000000000000000000000000000000000000000000000000000000000000000000000000000000000000000000000000000000000000000000000000000000000000000000000000000000000000000000000000000000000000000000000000000000000000000000000000000000000000000000000000000000000000000000000000000000000000000000000000000000000000000000000000000000000000000000000000000000000000000000000000000000000000000000000000000000000000000000000000000000000000000000000000000000000000000000000000000000000000000000000000000000000000000000000000000000000000000000000000000000000000000000000000000000000000000000000000000000000000000000000000000000000000000000000000000000000000000000000000000000000000000000000000000000000000000000000000000000000000000000000000000000000000000000000000000000000000000000000000000000000000000000000000000000000000000000000000000000000000000000000000000000000000000000000000000000000000000000000000000000000000000000000000000000000000000000000000000000000000000000000000000000000000000000000000000000000000000000000000000000000000000000000000000000000000000000000000000000000000000000000000000000000000000000000000000000000000000000000000000000000000000000000000000000000000000000000000000000000000000000000000000000000000000000000000000000000000000000000000000000000000000000000000000000000000000000000000000000000000000000000000000000000000000000000000000000000000000000000000000000000000000000000000000000000000000000000000000000000000000000000000000000000000000000000000000000000000000000000000000000000000000000000000000000000000000000000000000000000000000000000000000000000000000000000000000000000000000000000000000000000000000000000000000000000000000000000000000000000000000000000000000000000000000000000000000000000000000000000000000000000000000000000000000000000000000000000000000000000000000000000000000000000000000000000000000000000000000000000000000000000000000000000000000000000000000000000000000000000000000000000000000000000000000000000000000000000000000000000000000000000000000000000000000000000000000000000000000000000000000000000000000000000000000000000000000000000000000000000000000000000000000000000000000000000000000000000000000000000000000000000000000000000000000000000000000000000000000000000000000000000000000000000000000000000000000000000000000000000000000000000000000000000000000000000000000000000000000000000000000000000000000000000000000000000000000000000000000000000000000000000000000000000000000000000000000000000000000000000000000000000000000000000000000000000000000000000000000000000000000000000000000
#0611a:00002454
#06112:0054
#06114:00000000000000000054000000000054
#06116:0000000000540054
#06118:00000000000000000000005400540000
#04612:0013000013000000
#04616:00000013
#04619:0000001300000000
#04614:0000000000130000
#0461a:00240024
#04716:13000000000000000000000000140000
#04712:0000241300002424
#04717:0000000000000000000000001300000000000000000000000000000000640000
#0471b:0013
#04714:0000000000140000
#04718:00000000000000000000000000000000000000000000000000000000000000000000000000000000000000001400000000000000000000000064000000000000
#0471a:0000000000000024
#08018:0013000000130000
#08015:00131300
#08012:0000001300001300
#0801b:00000013
#08017:0000000000000013
#0801a:2400002400000024
#07812:2800131300001324
#07817:0000131300000000
#07814:0013
#0781b:0000000000130013
#07816:0000000000130000
#0791b:0000130000131300
#07919:0000001300000000
#07912:00131300
#07917:13001313
#07916:0013000000000000
#06215:0000000013130000
#06214:0000000000000015
#0621b:0000001300000000
#06212:54240024
#06217:23
#06315:0013000000130000
#06317:0000001513000000
#06318:0000000000000013
#06312:00241324
#07017:0000001300000000
#07015:0000000013130000
#07014:0000000000000015
#0701b:23000000000000000000000000130000
#07012:13240024
#06617:0000000000000015
#06618:0000000013130000
#0661b:13
#06612:0000001300000000
#06616:23
#0661a:00240024
#06718:0013000000130000
#06714:0000001500000000
#0671b:0013
#06716:0013
#06715:0000000000000013
#0671a:00240024
#06518:0013000000000013
#06515:0013000000130000
#06512:00241324
#0651b:00000013
#0641b:1300001300130013
#06415:0000001300130000
#06416:1300000000000014
#06418:0014
#06412:00240024
#06410:41
#06419:0000000000000000000000000000000000000000000000000000000000530000
#0641a:00000000000000000000000000000000000000000000000000000000000000000000000000000000000000000000000000000000000000000053000000000000
#06914:00000000000000000013000000000000
#06919:0000000000130000
#06916:00000000000000000000001300000000
#06912:00000000000000000000000000130000
#06918:0013000000000013
#06915:00001300000000000000000000000013
#0691b:0013
#0691a:00240024
#06812:1300001300130013
#06814:0000000000000000000000000000000014000000000000000000000000530000
#06818:0000001300130000
#06817:13
#06816:0000000000000014
#0681a:00240024
#06813:00000000000000000000000000000000000000000000000000000000000000000000000000000000000000000000000000000000000000000053000000000000
#03512:2424540000000023
#03518:2400000024000000000000540000000000000000000000000000000000000000
#03516:00000000005400000000000000002400
#0351a:0000005424240000
#03514:0000000000000000005400000000000024000000240000000000000000000000
#08216:2400002400002400
#08217:0025000000000025
#08212:0025002400000025
#08219:0025
#08214:0025
#0821a:00000024
#02716:2424002424002424
#0271b:2300002300002300
#02712:0023000023000023
#02710:0041
#0851a:000000000000000000000000000000000000000000000000000000000000000000000000000000000000000000000000000000000000000000000000000000000000000000000000000000000000000000000000000000000000000000000000000000000000000000000000000000000000000000000000000000000000000000000000000000000000000000000000000000000000000000000000000000000000000000000000000000000000000000000000000000000000000000000074540000000000000000000000000000000000000000000000000000000000000000000000000000000000000000000000000000000000000000000000000000000000000000000000000000000000000000000000000000000000000000000000000000000000000000000000000000000000000000000000000000000000000000000000000000000000000000000000000000000000000000000000000000000000000000000000000000000000000000000000000000000000000000000000
#08519:0000000000000000000000000000000000540000000000000000000000000000
#08518:00000000000000000054000000000000
#08517:0000000000000000000000000000000000000054000000000000000000000000
#08516:0000000000540000
#08515:0000000000000000000000000000000000000000005400000000000000000000
#08514:00000000000000000000005400000000
#08513:0000000000000000000000000000000000000000000000540000000000000000
#08512:00000054
#0835a:0000000000000054
#08352:0000000000000064
#00852:0000001c00000000
#0085a:00000044
#00856:0014000000000000
#00854:00180000
#03156:0000000000000063
#03159:0000000000000045
#03152:0016
#03158:0000000000160000
#03552:0014000000000053
#03558:0014000000000000
#0355a:0000000000140000
#03554:0000000000140000
#03655:0016000000000000
#03654:00180000
#03653:0000001a00000000
#03652:001c
#06052:1c
#0745b:0000000000630000
#07452:0000000000000053
#00358:16
#00352:0000001600000000
#0035b:0000000000000053
#0045a:0044
#00452:00000034
#0055b:53
#00552:0000000000000063
#00556:1400000000000014
#00752:160000000000005c
#00758:0000001600000000
#01156:0000000000000053
#01152:1400001400000014
#0095b:53
#00957:0023000000000000
#00952:3400000000000063
#0095a:0000000000000044
#02952:63
#0295b:0053
#02953:00000035
#02957:00450000
#03857:00000063
#04052:00000054
#04056:24
#04356:0000004400000053
#04352:1400140000000034
#0435a:0000000000440000
#0435b:63
#05356:0000000000530053
#05352:1400000000000034
#05457:00000063
#0545b:0000000000000023
#05956:00141400
#0595b:53
#07652:6300000000000023
#07655:0000000000000049
#01056:23000063
#02652:00000053
#0265a:00140014
#03052:63000036
#0305b:0053
#03058:00460000
#03257:0053
#03957:53
#0395a:0000000000000044
#03955:0000000000000000000000000000000000000000000000000000000000540000
#0485a:00000064
#04856:24
#05557:0000000000630063
#0555a:0000000000000044
#05552:34
#05654:0035
#05657:00450000
#05659:00000045
#05752:35
#05859:45
#07156:0063
#07157:00000053
#07359:0025000000000000
#07256:0000000000350000
#07255:0000000000000000000000004500000000000000000000000000000000550000
#07257:0000000000000045
#07254:0053000000000000000000000000000000000000000000000000000000000000
#0755b:0063000000000000
#07852:3800000000000034
#0785b:0000000000000053
#02756:3444000044000044
#0335a:54
#03352:0064
#03353:00370000
#03356:00000047
#0345a:54
#03452:00370000
#0375a:4400000000000044
#03752:5300000000000000000000000000000000000000000000000000000000230000
#03756:0023000000000000
#0015a:1400000000000014
#00152:1400000000000014
#0065b:0013
#00652:00000013
#04557:0023000000000000
#0455b:6300000000000000000000000000000000000000000000000000000000230000
#04552:0000000000000034
#04156:14630000
#0425b:0053000000000000
#04252:0000006300000000
#02252:00000054
#0225a:00140014
#02152:0000000000000053
#0215a:00140014
#02358:0000000000000053
#02352:00140014
#02452:00140014
#0245a:00000064
#0255a:00140014
#01456:0000000013000023
#0145b:0000000013000023
#01457:23000063
#01452:00000063
#0135b:0000000000000053
#01359:45
#01352:35
#01552:3400000000000063
#01557:34
#01656:23000053
#01652:0000000013000023
#01657:0000000013000023
#0165b:00000053
#01856:0013
#0185b:00001353
#01857:23
#0175b:0000000000000053
#01755:44
#0175a:44
#01257:000000000000000000000000000000000000000000000000000000000000000000000000000000000000000000000000000000000000000000000000000000000000000000000000000000000000000000000000000000000000000000000000000000000000000000000000000000000000000000000000000000000000000000000000000000000000000000000000000000000000000000000000000000000000000000000000000000000000000000000000000000000000000000000000000000000000000000000000000000000000000000000000000000000000000000000000000000000000000000000000000000000000000000000000000000000000000000000000000000000000000000000000000000000000000000000000000000000000000000000000000000000000000000000000000000000000000000000000000000000000000000000000000000000000000000000000000000000000000000000000000000000000000000000000000000000000000000000000000000000000000000000000000000000000000000000000000000000000000000000000000000000000000000000000000000000000000000000000000000000000000000000000000000000000000000000000000000000000000000000000000000000000000000000000000000000000000000000000000000000000000000000000000000000000000000000000000000000000000000000000000000000000000000000000000000000000000000000000000000000000000000000000000000000000000000000000000000000000000000000000000000000000000000000000000000000000000000000000000000000000000000000000000000000000000000000000000000000000000000000000000000000000000000000000000000000000000000000000000000000000000000000000000000000000000000000000000000000000000000000000000000000000000000000000000000000000000000000000000000000000000000000000000000000000000000000000000000000000000000000000000000000000000000000000000000000000000000000000000000000000000000000000000000000000000000000000000000000000000000000000000000000000000000000000000000000000000000000000000000000000000000000000000000000000000000000000000000000000000000000000000000000000000000000000000000000000000000000000000000000000000000000000000000000000000000000000000000000000000000000000000000000000000000000000000000000000000000000000000000000000000000000000000000000000000000000000000000000000000000000000000000000000000000000000000000000000000000000000000000000000000000000000000000000000000000000000000000000000000000000000000000000000000000000000000000000000000000000000000000000000000000000000000000000000000000000000000000000000000000000000000000000000000000000000000000000000000000000000000000000000000000000000000000000000000000000000000000000000000000000000222200000000000000000000000000000000000000000000000000000000000000000000000000000000000000000000000000000000000000000000000000000000000000000000000000000000000000000000000000000000000000000000000000000000000000000000000000000000000000000000000000000000000000000000000000000000000000000000000000000000000000000000000000000000000000000000000000000000000000000000000000000000000000000000000000000000000000000000000000000000000000000000000000000000000000000000000000000000000000000000000000000000000000000000000000000000000000000000000000000000000000000000000000000000000000000000000000000000000000000000000000000000000000000000000000000000000000000000000000000000000000000000000000000000000000000000000000000000000000000000000000000000000000000000000000000000000000000000000000000000000000000000000000000000000000000000000000000000000000000000000000000000000000000000000000000000000000000000000000000000000000000000000000000000000000000000000000000000000000000000000000000000000000000000000000000000000000000000000000000000000000000000000000000000000000000000000000000000000000000000000000000000000000000000000000000000000000000000000000000000000000000000000000000000000000000000000000000000000000000000000000000000000000000000000000000000000000000000000000000000000000000000000000000000000000000000000000000000000000000000000000000000000000000000000000000000000000000000000000000000000000000000000000000000000000000000000000000000000000000000
#01252:0000003600000000
#01258:0000004600000000
#01952:3434000000340000
#0195a:0000004400000044
#01957:0000000000000063
#02858:0016
#02852:0016
#0515b:6300004300430000
#05156:13
#0515a:0000000000000044
#05157:0000000000000063
#04957:00530000
#04956:14
#05052:0063000000000000
#0505b:0000005300000000
#05057:0000001300000000
#08252:0035000000000035
#08259:0045
#08256:3400004400003400
#08155:0000000000530000
#08158:0000004600000000
#08152:0000003600000000
#06157:525200000000000000000000000000000000000000000000000000000000000000000000000000000000000000000000000000000000000000000000000000000000000000000000000000000000000000000000000000000000000000000000000000000000000000000000000000000000000000000000000000000000000000000000000000000000000000000000000000000000000000000000000000000000000000000000000000000000000000000000000000000000000000000000000000000000000000000000000000000000000000000000000000000000000000000000000000000000000000000000000000000000000000000000000000000000000000000000000000000000000000000000000000000000000000000000000000000000000000000000000000000000000000000000000000000000000000000000000000000000000000000000000000000000000000000000000000000000000000000000000000000000000000000000000000000000000000000000000000000000000000000000000000000000000000000000000000000000000000000000000000000000000000000000000000000000000000000000000000000000000000000000000000000000000000000000000000000000000000000000000000000000000000000000000000000000000000000000000000000000000000000000000000000000000000000000000000000000000000000000000000000000000000000000000000000000000000000000000000000000000000000000000000000000000000000000000000000000000000000000000000000000000000000000000000000000000000000000000000000000000000000000000000000000000000000000000000000000000000000000000000000000000000000000000000000000000000000000000000000000000000000000000000000000000000000000000000000000000000000000000000000000000000000000000000000000000000000000000000000000000000000000000000000000000000000000000000000000000000000000000000000000000000000000000000000000000000000000000000000000000000000000000000000000000000000000000000000000000000000000000000000000000000000000000000000000000000000000000000000000000000000000000000000000000000000000000000000000000000000000000000000000000000000000000000000000000000000000000000000000000000000000000000000000000000000000000000000000000000000000000000000000000000000000000000000000000000000000000000000000000000000000000000000000000000000000000000000000000000000000000000000000000000000000000000000000000000000000000000000000000000000000000000000000000000000000000000000000000000000000000000000000000000000000000000000000000000000000000000000000000000000000000000000000000000000000000000000000000000000000000000000000000000000000000000000000000000000000000000000000000000000000000000000000000000000000000000000000000000000000000000000000000000000000000000000000000000000000000000000000000000000000000000000000000000000000000000000000000000000000000000000000000000000000000000000000000000000000000000000000000000000000000000000000000000000000000000000000000000000000000000000000000000000000000000000000000000000000000000000000000000000000000000000000000000000000000000000000000000000000000000000000000000000000000000000000000000000000000000000000000000000000000000000000000000000000000000000000000000000000000000000000000000000000000000000000000000000000000000000000000000000000000000000000000000000000000000000000000000000000000000000000000000000000000000000000000000000000000000000000000000000000000000000000000000000000000000000000000000000000000000000000000000000000000000000000000000000000000000000000000000000000000000000000000000000000000000000000000000000000000000000000000000000000000000000000000000000000000000000000000000000000000000000000000000000000000000000000000000000000000000000000000000000000000000000000000000000000000000000000000000000000000000000000000000000000000000000000000000000000000000000000000000000000000000000000000000000000000000000000000000000000000000000000000000000000000000000000000000000000000000000000000000000000000000000000000000000000000000000000000000000000000000000000000000000000000000000000000000000000000000000000000000000000000000000000000000000000000000000000000000000000000000000000000000000000000000000000000000000000
#0615a:0014
#04656:00000053
#04756:63
#04752:0000000000000034
#04757:0000000000000000000000000000000000000000000000000000000000640000
#08057:0000000000000063
#0805a:1400001400000014
#07957:23000053
#06254:0000000000000015
#0625b:0000002300000000
#06257:53
#07057:0000005300000000
#07054:0000000000000015
#0705b:53000000000000000000000000230000
#06657:0000000000000015
#06652:0000002300000000
#06656:63
#06558:0023000000000000
#06456:0000000000000034
#0645b:6300000000130000
#06455:0000001300000000
#06459:0000000000000000000000000000000000000000000000000000000000630000
#06357:0053
#06756:0063
#06852:5300000000130000
#06858:0000001300000000
#06856:0000000000000044
#06854:0000000000000000000000000000000000000000000000000000000000530000
#06955:0023000000000000
#0033b0:0000000000000013
#004370:0023000000000000
#0053b0:13
#005370:00230000
#005320:0000000000000013
#006360:0023000000000000
#007320:000000000000001c
#008360:0024000000000000
#0093b0:13230000
#009370:0053000000000000
#009320:0000000000000013
#010360:53
#010320:0023000000000000
#010360:00000013
#0113b0:23
#011360:0000000000000013
#0123b0:0023000000000000
#012370:0000000000120000
#013390:25
#012371:000000000000000000000000000000000000000000000000000000000000000000000000000000000000000000000000000000000000000000000000000000000000000000000000000000000000000000000000000000000000000000000000000000000000000000000000000000000000000000000000000000000000000000000000000000000000000000000000000000000000000000000000000000000000000000000000000000000000000000000000000000000000000000000000000000000000000000000000000000000000000000000000000000000000000000000000000000000000000000000000000000000000000000000000000000000000000000000000000000000000000000000000000000000000000000000000000000000000000000000000000000000000000000000000000000000000000000000000000000000000000000000000000000000000000000000000000000000000000000000000000000000000000000000000000000000000000000000000000000000000000000000000000000000000000000000000000000000000000000000000000000000000000000000000000000000000000000000000000000000000000000000000000000000000000000000000000000000000000000000000000000000000000000000000000000000000000000000000000000000000000000000000000000000000000000000000000000000000000000000000000000000000000000000000000000000000000000000000000000000000000000000000000000000000000000000000000000000000000000000000000000000000000000000000000000000000000000000000000000000000000000000000000000000000000000000000000000000000000000000000000000000000000000000000000000000000000000000000000000000000000000000000000000000000000000000000000000000000000000000000000000000000000000000000000000000000000000000000000000000000000000000000000000000000000000000000000000000000000000000000000000000000000000000000000000000000000000000000000000000000000000000000000000000000000000000000000000000000000000000000000000000000000000000000000000000000000000000000000000000000000000000000000000000000000000000000000000000000000000000000000000000000000000000000000000000000000000000000000000000000000000000000000000000000000000000000000000000000000000000000000000000000000000000000000000000000000000000000000000000000000000000000000000000000000000000000000000000000000000000000000000000000000000000000000000000000000000000000000000000000000000000000000000000000000000000000000000000000000000000000000000000000000000000000000000000000000000000000000000000000000000000000000000000000000000000000000000000000000000000000000000000000000000000000000000000000000000000000000000000000000000000000000000000000000000000000000000000000000000000000001200000000000000000000000000000000000000000000000000000000000000000000000000000000000000000000000000000000000000000000000000000000000000000000000000000000000000000000000000000000000000000000000000000000000000000000000000000000000000000000000000000000000000000000000000000000000000000000000000000000000000000000000000000000000000000000000000000000000000000000000000000000000000000000000000000000000000000000000000000000000000000000000000000000000000000000000000000000000000000000000000000000000000000000000000000000000000000000000000000000000000000000000000000000000000000000000000000000000000000000000000000000000000000000000000000000000000000000000000000000000000000000000000000000000000000000000000000000000000000000000000000000000000000000000000000000000000000000000000000000000000000000000000000000000000000000000000000000000000000000000000000000000000000000000000000000000000000000000000000000000000000000000000000000000000000000000000000000000000000000000000000000000000000000000000000000000000000000000000000000000000000000000000000000000000000000000000000000000000000000000000000000000000000000000000000000000000000000000000000000000000000000000000000000000000000000000000000000000000000000000000000000000000000000000000000000000000000000000000000000000000000000000000000000000000000000000000000000000000000000000000000000000000000000000000000000000000000000000000000000000000000000000000000000000000000000000000000000000000000000
#013321:25
#0133b1:0000000000000013
#014371:53
#0143b1:0023000000000000
#014371:00000013
#0143b1:0000000000000053
#015371:24
#014320:00000013
#014360:0000000000000053
#015320:24
#015320:0000000000000013
#016360:53
#016320:0023000000000000
#016360:00000013
#016320:0000000000000053
#017350:24
#0163b1:00000013
#016371:0000000000000053
#0173a1:24
#0173b1:0000000000000013
#018371:53
#0183b1:0023000000000000
#0183b1:00000013
#019371:23
#019371:0000000000000013
#020321:0023000000000000
#021351:00133300
#021321:0000003300230000
#021321:0000000000000013
#022351:0023000000000000
#022321:00000014
#023381:26
#023381:00133300
#0233b1:0000003300230000
#023381:0000000000000013
#0243b1:0023000000000000
#0243a1:00000014
#025321:26
#025321:00133300
#025351:0000003300230000
#026321:00000013
#027361:24
#027321:0000000000000013
#028381:0033000000000000
#028371:00330000
#028361:0000003300000000
#028321:0026
#029321:13
#029361:0053000023000000
#0293b0:0013
#029370:0000000000530000
#030370:23
#030321:13
#030361:0053000023000000
#0303b0:0013
#030370:0000000000530000
#031370:23
#031360:0000000000000013
#031320:00000000000000000000000000000053
#032320:0023000000000000
#0323b0:0000132300000000
#032370:0013
#0323b0:00000000000000000053000023000000
#0333a0:14
#033360:0054000024000000
#033321:0014
#033361:0000000000540000
#034361:24
#0343a0:14
#034360:0054000024000000
#035320:0000000000000013
#036350:0026000000000000
#037320:13230000
#037360:0053000000000000
#037320:0000000000000000000000000000000000000000000000000000000000130000
#038360:0023000000000000
#038370:0000132300000000
#038360:0000000013230000
#038370:00000013
#0393b0:23
#039371:13
#039321:00230000
#039351:0000000000000000000000000000000000000000000000000000000000140000
#040361:54
#040321:0023000000000000
#040321:00000014
#041361:24
#041361:00130000
#0413b1:0023
#0423b1:0013000000000000
#042361:0000002300000000
#042320:0000001300000000
#042370:0000000000230000
#0433b0:13
#043370:00230000
#043360:0000000000000013
#0443b0:0033002300000000
#044370:00330000
#044361:0013003300000000
#044321:00332300
#0453b1:13230000
#045371:0053000000000000
#0453b1:0000000000000000000000000000000000000000000000000000000000130000
#046371:0023000000000000
#046361:0000132300000000
#046371:0000000013230000
#046361:00000013
#047321:23
#047360:13
#0473b0:00230000
#047370:0000000000000000000000000000000000000000000000000000000000140000
#048360:54
#0483b0:0023000000000000
#0483a0:00000014
#049360:24
#049370:00130000
#049320:0023
#050320:0013000000000000
#050370:0000002300000000
#0503b1:0000001300000000
#050361:0000000000230000
#0513b1:13
#051361:00240000
#051371:0000000000000013
#052321:0023000000000000
#053321:0000132300000000
#0533b1:0000000013230000
#053360:0000000000130000
#053320:0000000000000024
#053361:0000000000000013
#0543b1:0023000000000000
#054381:0000132300000000
#0543b1:0000000013230000
#054371:00000013
#0543b1:0000000000000053
#055371:23
#0553b1:0000132300000000
#055321:0000000013230000
#055370:0000000000130000
#0553a0:0000000000000024
#055371:0000000000000013
#056321:0023000000000000
#0593b1:13
#059361:00240000
#061371:12
#0613a1:0024
#061370:001200000000000000000000000000000000000000000000000000000000000000000000000000000000000000000000000000000000000000000000000000000000000000000000000000000000000000000000000000000000000000000000000000000000000000000000000000000000000000000000000000000000000000000000000000000000000000000000000000000000000000000000000000000000000000000000000000000000000000000000000000000000000000000000000000000000000000000000000000000000000000000000000000000000000000000000000000000000000000000000000000000000000000000000000000000000000000000000000000000000000000000000000000000000000000000000000000000000000000000000000000000000000000000000000000000000000000000000000000000000000000000000000000000000000000000000000000000000000000000000000000000000000000000000000000000000000000000000000000000000000000000000000000000000000000000000000000000000000000000000000000000000000000000000000000000000000000000000000000000000000000000000000000000000000000000000000000000000000000000000000000000000000000000000000000000000000000000000000000000000000000000000000000000000000000000000000000000000000000000000000000000000000000000000000000000000000000000000000000000000000000000000000000000000000000000000000000000000000000000000000000000000000000000000000000000000000000000000000000000000000000000000000000000000000000000000000000000000000000000000000000000000000000000000000000000000000000000000000000000000000000000000000000000000000000000000000000000000000000000000000000000000000000000000000000000000000000000000000000000000000000000000000000000000000000000000000000000000000000000000000000000000000000000000000000000000000000000000000000000000000000000000000000000000000000000000000000000000000000000000000000000000000000000000000000000000000000000000000000000000000000000000000000000000000000000000000000000000000000000000000000000000000000000000000000000000000000000000000000000000000000000000000000000000000000000000000000000000000000000000000000000000000000000000000000000000000000000000000000000000000000000000000000000000000000000000000000000000000000000000000000000000000000000000000000000000000000000000000000000000000000000000000000000000000000000000000000000000000000000000000000000000000000000000000000000000000000000000000000000000000000000000000000000000000000000000000000000000000000000000000000000000000000000000000000000000000000000000000000000000000000000000000000000000000000000000000000000000000000000000000000000000000000000000000000000000000000000000000000000000000000000000000000000000000000000000000000000000000000000000000000000000000000000000000000000000000000000000000000000000000000000000000000000000000000000000000000000000000000000000000000000000000000000000000000000000000000000000000000000000000000000000000000000000000000000000000000000000000000000000000000000000000000000000000000000000000000000000000000000000000000000000000000000000000000000000000000000000000000000000000000000000000000000000000000000000000000000000000000000000000000000000000000000000000000000000000000000000000000000000000000000000000000000000000000000000000000000000000000000000000000000000000000000000000000000000000000000000000000000000000000000000000000000000000000000000000000000000000000000000000000000000000000000000000000000000000000000000000000000000000000000000000000000000000000000000000000000000000000000000000000000000000000000000000000000000000000000000000000000000000000000000000000000000000000000000000000000000000000000000000000000000000000000000000000000000000000000000000000000000000000000000000000000000000000000000000000000000000000000000000000000000000000000000000000000000000000000000000000000000000000000000000000000000000000000000000000000000000000000000000000000000000000000000000000000000000000000000000000000000000000000000000000000000000000000000000000000000000000000000000000000000000000000000000000000000000000000000000000000000
#061320:0024
#062370:13
#0623b0:0000003300000000
#063370:00270000
#063370:0013
#0633b0:00000023
#0643b0:13
#064370:00230000
#064390:0000000000000000000000000000000000000000000000000000000000130000
#065380:0053000000000000
#0653b0:0023
#066360:13
#066320:0000003300000000
#067320:00270000
#067360:0013
#067320:00000023
#068320:13
#068360:00230000
#068340:0000000000000000000000000000000000000000000000000000000000130000
#069350:0053000000000000
#069320:0023
#0703b0:13000000000000000000000000530000
#070370:0000003300000000
#071370:00270000
#071360:0013
#071320:00000023
#071371:00000013
#0723b1:23
#072341:0013000000000000000000000000000000000000000000000000000000000000
#072361:00250000
#072351:0000000000000000000000000000000000000000000000000000000000150000
#073391:0055000000000000
#073321:0000002500000000
#0743b1:0000000000130000
#074371:0000000000000023
#074320:0000000000000013
#075360:0023000000000000
#0753b1:0013000000000000
#075371:0000002300000000
#076321:13
#076361:00230000
#076321:0000000000000013
#077321:0033332900000000
#0783b1:0000000000000013
#079371:53
#0793b1:0023000000000000
#079371:00000013
#080321:23
#080371:0000000000000013
#081321:0023000000000000
#081351:0000000000130000
#0823a1:24
#0833a1:0000000000000014
#0853a1:0024
#083320:0000000000000014
#0853a0:000000000000000000000000000000000000000000000000000000000000000000000000000000000000000000000000000000000000000000000000000000000000000000000000000000000000000000000000000000000000000000000000000000000000000000000000000000000000000000000000000000000000000000000000000000000000000000000000000000000000000000000000000000000000000000000000000000000000000000000000000000000000000000000024000000000000000000000000000000000000000000000000000000000000000000000000000000000000000000000000000000000000000000000000000000000000000000000000000000000000000000000000000000000000000000000000000000000000000000000000000000000000000000000000000000000000000000000000000000000000000000000000000000000000000000000000000000000000000000000000000000000000000000000000000000000000000000000000
#035920:00140000
#0359a0:0000002400000000
#061920:0014
#0619a0:00000054
#062920:24
#0859a0:0014
#085920:00000024
