This file was generated by Ched 2.7.0.0.
#TITLE ""
#ARTIST ""
#DESIGNER ""
#DIFFICULTY 0
#PLAYLEVEL
#SONGID ""
#WAVE ""
#WAVEOFFSET 0
#JACKET ""
#REQUEST "ticks_per_beat 480"
#00002: 4
#BPM01: 170
#00008: 01
#TIL00: ""
#VOLUME: ""
#HISPEED 00
#MEASUREHS 00
#0081a:00140000
#0091a:00140000
#01012:00140000
#01112:00140000
#01218:00140000
#01318:00140000
#01414:00140000
#01514:00140000
#02412:00000016
#02418:00260000
#02410:00410000
#02518:00160000
#02512:00000016
#02618:00160016
#04412:00140000
#04410:00410000
#04518:00140000
#04614:00140000
#0471a:00140000
#04812:00140000
#04918:00140000
#0531a:00140000
#05414:00140000
#05514:00140000
#05618:00140000
#05718:00140000
#02812:00160000
#02818:00000016
#02912:00160000
#02918:00000016
#06212:00000016
#06218:00260000
#06412:00160000
#06418:00000016
#06512:00160000
#06518:00000016
#07012:00160000
#07018:00000016
#07112:00160000
#07118:00000016
#07418:00160000
#07412:00000016
#07518:00160000
#07512:00000016
#0521f:00110000
#05212:00240000
#0521a:00240000
#00018:00260000
#00112:00260000
#00612:00260000
#02214:00240000
#05014:00240000
#05814:00240000
#06012:00240000
#0601a:00240000
#0601f:00210000
#07812:00260000
#07918:00260000
#08012:00260000
#00518:00260000
#00218:00260000
#03418:00260000
#03312:00260000
#03012:00260000
#06612:00260000
#00412:00260000
#00410:00410000
#03218:00260000
#03210:00410000
#06818:00260000
#07618:00260000
#01610:00410000
#06110:0041
#002380:00160036
#003380:3636003636002600
#006320:00160000
#007320:00260000
#0163a0:00140000
#0173a0:00240000
#018320:00140000
#019320:00240000
#020380:00140000
#021380:00240000
#022340:00140000
#023320:00240000
#027380:00160026
#030320:00160036
#031320:3636003636002600
#034380:00160000
#035380:00260000
#036320:00140000
#037340:00340000
#038340:00340000
#039320:00240000
#0403a0:00140000
#041380:00340000
#042380:00340000
#0433a0:00240000
#050340:00140000
#051320:00240000
#058340:00140000
#059320:0024000000000000
#063380:00160026
#066320:00160036
#067320:3636003636002600
#068380:00160036
#069380:3636003636002600
#072320:00160000
#073320:00360026
#076380:00160036
#077380:3636003636002600
#080320:00160000
#081320:00363636
#082320:26
