This file was generated by Ched 2.7.0.0.
#TITLE ""
#ARTIST ""
#DESIGNER ""
#DIFFICULTY 0
#PLAYLEVEL
#SONGID ""
#WAVE ""
#WAVEOFFSET 0
#JACKET ""
#REQUEST "ticks_per_beat 480"
#00002: 4
#BPM01: 140
#00008: 01
#TIL00: ""
#VOLUME: ""
#HISPEED 00
#MEASUREHS 00
#00314:0014
#00414:0014
#0041a:24
#00410:41
#00518:14
#00512:0014
#0081a:14
#00812:0014
#0061a:14
#00614:0014
#00718:14
#00712:0014
#00918:1414
#00914:00140000
#01012:14
#0101a:0014
#01114:1414
#01118:00140000
#0121a:14141400
#01312:14141400
#01518:00000014
#01514:00240000
#01618:00140000
#01612:2414
#01610:41
#0171a:1414
#01714:00140000
#01812:14
#0181a:00140000
#01814:0014
#0191a:14
#01912:00140000
#01918:0014
#02112:14
#02116:00140000
#0211a:0014
#02418:00140000
#02414:0014
#0241a:00000014
#02412:26
#02410:41
#02512:14
#02518:00140000
#02514:0014
#0251a:00000014
#02612:14140000
#0261a:00001414
#02714:14
#02814:00140000
#02818:2614
#02812:00000014
#0291a:14
#02914:00140000
#02918:0014
#02912:00000014
#0301a:14140000
#03012:00001414
#03118:14
#03318:0014
#03310:41
#03414:1414
#0351a:14
#03514:0014
#03618:1414
#03712:14141400
#0381a:14141400
#04012:14
#0401a:00140000
#04014:0014
#04018:00000014
#03914:14
#03918:0014
#04112:14
#0411a:00140000
#04114:0014
#04110:41
#0421a:14
#04212:00140000
#04218:0014
#04412:14
#0451a:14140014
#04514:0014
#04612:14140014
#04618:0014
#0541a:14
#05414:00140000
#05418:00000014
#05514:00140000
#05518:00000014
#05612:14
#05618:00140000
#0561a:00000014
#05614:0014
#05814:00140000
#05818:26001414
#0581f:21
#05810:0041
#05912:14
#05918:00140000
#05914:00001414
#0601a:14140000
#06012:00001414
#06214:00140000
#0621a:00001414
#06218:26
#06314:14
#06318:00140000
#06312:00001414
#0641a:14
#06416:00140014
#06412:0014
#06518:000000000000000000000014000000000000000000000000
#0651a:140000340000340034000000000000340000340000000000
#06614:00140000
#06618:0014
#06612:00000014
#0671a:14
#06714:00140000
#06718:0014
#06712:00000014
#0681a:14
#06814:00140000
#06818:0014
#06812:00000014
#06914:00000014
#07018:14
#0501f:11
#05018:00340034
#05118:00340000
#05214:00340034
#05314:00340000
#01554:00140000
#02754:64
#03158:54
#02452:16
#03352:14
#04152:14
#04452:64
#04454:0014
#04952:14
#05754:0014
#05858:16
#0665a:14
#06558:000000000000000000000064000000000000000000000000
#0655a:64
#0695a:0014
#002380:14
#003380:24
#014380:14
#0143a0:0024
#015340:14240000
#020340:14240000
#020380:00001424
#022320:1424
#0233a0:1424
#027340:14
#027320:0024
#031380:14
#0313a0:0024
#032340:14
#033320:24
#043340:14240000
#043380:00001424
#044320:14
#044340:0024
#0473a0:14
#047380:0024
#048320:14
#048340:0034
#049320:24
#050380:14340034
#051380:00340000
#0513a0:00000024
#052340:14340034
#053340:00340000
#053320:00000024
#057340:140000340000340034000034240000000000000000000000
#061380:14240000
#061340:00001424
#0653a0:140000340000340034000000000000340000340000000000
#065380:000000000000000000000034000000000000000000000000
#0663a0:24
#0693a0:1424
