This file was generated by Ched 2.7.0.0.
#TITLE ""
#ARTIST ""
#DESIGNER ""
#DIFFICULTY 0
#PLAYLEVEL
#SONGID ""
#WAVE ""
#WAVEOFFSET 0
#JACKET ""
#REQUEST "ticks_per_beat 480"
#00002: 4
#BPM01: 124
#00008: 01
#TIL00: ""
#VOLUME: ""
#HISPEED 00
#MEASUREHS 00
#0051a:14
#00510:41
#0061a:14
#00714:14
#00814:14
#00918:14
#01018:14
#01112:14
#01212:14
#01314:0014
#0131a:24
#01310:41
#0141a:14
#01514:14
#0151a:0014
#01614:14
#01718:14
#01712:0014
#01818:14
#01912:14
#01918:0014
#02012:14
#02112:0016
#02118:26
#02110:41
#02312:16
#02318:0016
#02518:16
#02512:0016
#02618:16
#02612:0016
#02718:1616
#02812:1616
#02918:16
#03012:16
#0311a:14
#03110:41
#03214:14
#0331a:14
#03414:14
#03518:14
#03612:14
#03718:14
#03812:14
#03810:41
#04718:2616
#0471f:21
#04710:00410000
#04812:16
#04818:0016
#04912:1616
#05018:16
#05012:0016
#05118:1616
#05212:1616
#05318:16
#05312:0016
#05418:16
#05412:0016
#05612:16
#05618:0016
#0581a:14
#05912:14
#06018:14
#06014:0014
#0391f:11
#06118:24
#0013a0:14
#0023a0:24
#003340:14
#004340:24
#022380:1626
#024320:1626
#039380:14
#0403a0:34
#041380:34
#0423a0:24
#043340:14
#044320:34
#045340:34
#046320:24
#055380:1626
#057320:1626
