This file was generated by Ched 2.7.0.0.
#TITLE ""
#ARTIST ""
#DESIGNER ""
#DIFFICULTY 0
#PLAYLEVEL
#SONGID ""
#WAVE ""
#WAVEOFFSET 0
#JACKET ""
#REQUEST "ticks_per_beat 480"
#00002: 4
#BPM01: 132
#00008: 01
#TIL00: ""
#VOLUME: ""
#HISPEED 00
#MEASUREHS 00
#03214:0000000000120000
#03216:00000012
#03218:0000001300000012
#03215:13000013000000000000000000000000
#0321b:0013000000000000
#03212:00000000001300000000000000000000
#01515:00130013
#01512:2400000000240013
#0151b:1313
#01518:0000000000130000
#00918:00130000
#00912:0000000000130000
#00915:0000000000000013
#00914:24
#0091a:0000000000240000
#00910:41
#01218:0000130000000013
#01212:1300000000240000
#01215:0013000000001300
#0121a:24000052
#0121b:0000000000520000
#0121c:0052
#01318:00130013
#01312:1313
#01315:0000000000130000
#0131b:0000000000000013
#0131a:2400000000240000
#01418:0052000000001300
#01415:0000000000000013
#01412:2400000000130000
#0141a:0000005200240000
#01410:41
#01419:00520000
#00112:00120000
#00116:0000000000120000
#00118:0000000000000012
#00114:12
#0011a:12
#00214:12
#00216:00120000
#0021a:12
#0031a:12
#00314:12
#0031c:00120000
#00318:0000000000120000
#00316:0000000000000012
#0041a:12
#00418:0000120000000012
#00414:12
#00416:00000012
#00514:12
#0051a:12
#00515:00120000
#00517:0000000012000012
#00519:00000012
#00615:12
#0061b:12
#00616:0000000000000012
#00618:00000012
#0071a:12
#00714:12
#00719:00120000
#00717:0000000012000012
#00715:00000012
#00819:12
#00813:12
#0101b:13
#01018:0013000000000000
#01015:00130000
#01012:2452
#0101a:0000000000240000
#01013:0000000000520000
#01014:00000052
#01115:00130000
#0111b:0000000000130000
#01118:2400000000000013
#01112:0000000000240000
#01612:0000000000130000
#01615:00000013
#01618:2400000000000013
#01718:0000001300130013
#01715:00000000000000130013000000000000
#01712:23000013
#0171b:23
#0181b:0013000000000000
#01815:13000013000000000000000000001300
#01818:00000000001300000000000013000000
#01812:0000001300000000
#02412:00000000001300000000140000000000
#02416:00000014
#0241a:0000000000000014
#02418:1300001300000000
#0241b:0013000000000000
#02415:00000013000000000000000000000000
#02410:41
#02515:1300001300000013
#02518:13000000000000130000000013000000
#0251b:00000000000000000013000000000000
#0251f:00110000
#02512:0000240000240000
#0251a:0000240000000024
#02612:13000000001300000000240000000000
#02614:0000000000000014
#02618:0013000000001400
#02615:00000013000000000000000000000000
#0261b:0000001300000000
#02815:0000001300002300
#02818:13000013000000000000000000002300
#02812:0013000000000000
#0281b:00000000001300000000000000000000
#0281a:0000000000240000
#0271b:0000000000000013
#02712:0000000000130024
#02715:00000013
#02718:0000001500000000
#02713:00150000
#0271a:2400000000240000
#03312:0000130000000026
#0331b:0000000000130000
#03318:003636363636363636363636000000000000000000000000000000000000000000000000000000000000130000000000
#0331a:12
#03315:0000260000260000
#0331f:00210000
#03415:0013000000130000
#03412:0000001300001300
#03418:0000000013260000
#03518:0000130000260000
#0351b:0000000000000013
#03515:0000000000130000
#03512:2600000000000026
#03510:41
#03612:00130000
#03618:1300000000260000
#03615:0013000000000000
#0371b:00130000
#03712:003636363636363636363636000000000000000000000000000000000000130000000000000000000000000000000000
#03715:0000260000260013
#03714:12
#03718:0000000000000026
#03818:0013000000130000
#0381b:0000001300001300
#03815:0013
#03812:0000000000260000
#03915:00130000
#03912:0000000000260013
#03918:2600000000130026
#0401b:00130000
#04015:13
#04018:0013000000000000
#04012:0000000000260000
#04112:0000130000260013
#0411b:0000000000130000
#04116:00000000000000140000000000000000
#0411a:12
#04115:0000260000000026
#04118:003636363636363636363636000000000000000000000000000000000000000000000000000000000000000000000000
#0421b:0013001300000000
#04218:0000000013260013
#04215:0000000000130000
#04212:00000013
#04318:0000130000260000
#04315:0000001300000000
#0431b:0000000000000013
#04312:2600000000000026
#04415:0013000000000000
#04412:0000001300000000
#0441b:00000013000000000000000000000000
#04418:13000000001300000000260000000000
#0451b:0000130000000013
#04512:003636363636363636363636000000000000000000000000000000000000130000000000000000000000000000000000
#04516:00000000000000140000000000000000
#04514:12
#04518:0000000000260000
#04515:0000260000000026
#04510:41
#04612:0013000000260000
#0461b:00000013
#04615:0000000000000013
#04617:0000001300000000
#04715:00130000
#04718:2600001300000026
#04712:0000000000260013
#04818:0013000000002400
#0481b:0000001300000000
#04812:00000013000000000000260000000000
#04815:13000000001300000000000000000000
#02918:0000001300000013
#02915:00000000000000130000000013000000
#02912:00000000000000000013000000002400
#0291a:0000000000240000
#0301b:13000000001300000000000000000000
#03015:0013000000000000
#03018:00000013000000000000000000002500
#03012:0000001300000000
#0301a:0000000000240000
#03013:00000025
#01912:0000140000130000
#0191a:0000001400000000
#01918:0000000000000013
#0191b:00000013
#01910:41
#02115:0000001300130013
#02118:00000000000000130013000000000000
#0211b:00000013
#02212:0013000000000000
#02218:13000013000000000000000000002400
#02215:00000000001300000000000000000000
#0221b:0000001300000000
#02214:00000024
#02315:0000000000000013
#02312:0000002500001300
#0231b:0000000000130000
#02319:00250000
#02015:1300001300000000
#02012:0013000000000023
#02018:00000013000000000000000000000000
#0201b:00000000001300000000000023000000
#03112:2400002600240013
#0311b:0000000000130000
#03118:00260013
#0311a:0000000000000024
#04914:00240000
#04919:62
#04915:0000000000620000
#05015:62
#05019:62
#0135b:0000000000000063
#01258:00530000
#01055:00630000
#01752:53
#01754:00140000
#0175b:63
#01758:00140000
#02555:63
#02552:00140000
#02558:53
#0255a:00140000
#03552:1600000000000016
#03558:0000000000160000
#03355:0000160000160000
#03352:0000000000000016
#0335a:62
#03458:0000000000160000
#03658:0000000000160000
#03958:1600000000000016
#03952:0000000000160000
#03755:0000160000160000
#03758:0000000000000016
#03754:52
#03852:0000000000160000
#04052:0000000000160000
#04152:0000530000160053
#04155:0000160000000016
#0415b:0000000000630000
#04156:00000000000000240000000000000000
#0415a:62
#04258:0000000000160000
#04358:0000000000160000
#04352:1600000000000016
#04458:0000000000160000
#0455b:0000630000000063
#04552:0000000000530000
#04556:00000000000000240000000000000000
#04558:0000000000160000
#04555:0000160000000016
#04554:52
#04652:0000000000160000
#04657:0000005300000000
#04752:0000000000160000
#04758:1600000000000016
#04852:0000000000160000
#04858:00000054
#05059:52
#05055:62
#04954:00640000
#0265b:0000006300000000
#02654:0000000000000014
#02658:00000014
#03052:0000005300000000
#03053:00000015
#03058:0000000000000015
#01855:0000000000000013
#01858:00000013
#0195a:0000001400000000
#01952:00140000
#03158:00160000
#03152:0000001600000000
#0205b:00000063
#02052:0000000000000053
#02158:00140000
#02154:00140000
#02855:00000063
#02858:0000000000000053
#02952:00140000
#0295a:00140000
#02758:0000001500000000
#02753:00150000
#02254:00000014
#02258:0000000000000014
#02359:00150000
#02352:0000001500000000
#010350:00130000
#010320:0022
#012380:00130000
#0123c0:0022
#0133b0:0000000000000013
#014380:0022000000000000
#017320:13
#017340:00240000
#0173b1:13
#017381:00240000
#0203b1:00000013
#020381:0000000000000054
#021381:00240000
#020320:0000000000000013
#021340:54240000
#025350:13
#025320:00240000
#025381:13
#0253a1:00240000
#0263b1:0000001300000000
#026371:0000000000230000
#028351:00000013
#028321:0000000000000054
#029321:00240000
#028380:0000000000000013
#0293a0:54240000
#030320:0000001300000000
#030360:0000000000230000
#0333a0:12
#033380:003636363636363636363636000000000000000000000000000000000000000000000000000000000000000000000000
#033350:00260000
#037340:12
#037320:003636363636363636363636000000000000000000000000000000000000000000000000000000000000000000000000
#037350:00260000
#0413a0:12
#041380:003636363636363636363636000000000000000000000000000000000000000000000000000000000000000000000000
#041350:00260000
#041321:0000130000260000
#041361:00000000000000540000000000000000
#0413b0:0000000000130000
#041350:0000000000000026
#041321:0000000000000013
#042361:0023000000000000
#045341:12
#045321:003636363636363636363636000000000000000000000000000000000000000000000000000000000000000000000000
#045351:00260000
#0453b0:00130000
#045360:00000000000000540000000000000000
#045380:0000000000260000
#045321:0000000000130000
#045351:0000000000000026
#0453b0:0000000000000013
#046370:0023000000000000
#046370:0000001300000000
#0463b0:0000000000230000
#048380:00000014
#049390:22
#049340:00140000
#049350:0000000000220000
#010920:0012
#010940:000000000000000000000000000000000000000000000000000000000000000000000000000000000000000000000000000000000000000000000000000000000000000000000000000000000000000000000000000000000000000000000000000000000000000000000000000000000000000000000000000000000000000000000000000000000000000000000000000000000000000000000000000000000000000000000000000000000000000000000000000000000000000000000000000000000000000000000000000000000000000000000000000000000000000000000000000000000000000000000000000000000000000000000000000000000000000000000000000000000000000000000000000000000000000000000000000000000000000000000000000000000000000000000000000000000000000000000000000000000000000000000000000000000000000000000000000000000000000000000000000000000000000000000000000000000000000000000000000000000000000000000000000000000000000000000000000000000000000000000000000000000000000000000000000000000000000000000000000000000000000000000000000000000000000000000000000000000000000000000000000000000000000000000000000000000000000000000000000000000000000000000000000000000000000000000000000000000000000000000000000000000000000000000000000000000000000000000000000000000000000000000000000000000000000000000000000000000000000000000000000000000000000000000000000000000000000000000000000000000000000000000000000000000000000000000000000000000000000000000000000000000000000000000000000000000000000000000000000000000000000000000000000000000000000000000000000000000000000000000000000000000000000000000000000000000000000000000000000000000000000000000000000000000000000000000000000000000000000000000000000000000000000000000000000000000000000000000000000000000000000000000000000000000000000000000000000000000000000000000000000000000000000000000000000000000000000000000000000000000000000000000000000000000000000000000000000000000000000000000000000000000000000000000000000000000000000000000000000000000000000000000000000000000000000000000000000000000000000000000000000000000000000000000000000000000000000000000000000000000000000000000000000000000000000000000000000000000000000000000000000000000000000000000000000000000000000000000000000000000000000000000000000000000000000000000000000000000000000000000000000000000000000000000000000000000000000000000000000000000000000000000000000000000000000000000000000000000000000000000000000000000000000000000000000000000000000000000000000000000000000000000000000000000000000000000000000000000000000000000000000000000000000000000000000000000000000000000000000000000000000000000000000000000000000000000000000000000000000000000000000000000000000000000000000000000000000000000000000000000000000000000000000000000000000000000000000000000000000000000000000000000000000000000000000000000000000000000000000000000000000000000000000000000000000000000000000000000000000000000000000000000000000000000000000000000000000000000000000000000000000000000000000000000000000000000000000000000000000000000052220000000000000000000000000000000000000000000000000000000000000000000000000000000000000000000000000000000000000000000000000000000000000000000000000000000000000000000000000000000000000000000000000000000000000000000000000000000000000000000000000000000000000000000000000000000000000000000000000000000000000000000000000000000000000000000000000000000000000000000000000000000000000000000000000000000000000000000000000000000000000000000000000000000000000000000000000000000000000000000000000000000000000000000000000000000000000000000000000000000000000000000000000000000000000000000000000000000000000000000000000000000000000000000000000000000000000000000000000000000000000000000000000000000000000000000000000000000000000000000000000000000000000000000000000000000000000000000000000000000000000000000000000000000000000000000000000000000000000000000000000000000000000000000000000000000000000000000000000000000000000000000000000000000000000000000000000000000000000000000000
#0129c0:0012
#0129a0:000000000000000000000000000000000000000000000000000000000000000000000000000000000000000000000000000000000000000000000000000000000000000000000000000000000000000000000000000000000000000000000000000000000000000000000000000000000000000000000000000000000000000000000000000000000000000000000000000000000000000000000000000000000000000000000000000000000000000000000000000000000000000000000000000000000000000000000000000000000000000000000000000000000000000000000000000000000000000000000000000000000000000000000000000000000000000000000000000000000000000000000000000000000000000000000000000000000000000000000000000000000000000000000000000000000000000000000000000000000000000000000000000000000000000000000000000000000000000000000000000000000000000000000000000000000000000000000000000000000000000000000000000000000000000000000000000000000000000000000000000000000000000000000000000000000000000000000000000000000000000000000000000000000000000000000000000000000000000000000000000000000000000000000000000000000000000000000000000000000000000000000000000000000000000000000000000000000000000000000000000000000000000000000000000000000000000000000000000000000000000000000000000000000000000000000000000000000000000000000000000000000000000000000000000000000000000000000000000000000000000000000000000000000000000000000000000000000000000000000000000000000000000000000000000000000000000000000000000000000000000000000000000000000000000000000000000000000000000000000000000000000000000000000000000000000000000000000000000000000000000000000000000000000000000000000000000000000000000000000000000000000000000000000000000000000000000000000000000000000000000000000000000000000000000000000000000000000000000000000000000000000000000000000000000000000000000000000000000000000000000000000000000000000000000000000000000000000000000000000000000000000000000000000000000000000000000000000000000000000000000000000000000000000000000000000000000000000000000000000000000000000000000000000000000000000000000000000000000000000000000000000000000000000000000000000000000000000000000000000000000000000000000000000000000000000000000000000000000000000000000000000000000000000000000000000000000000000000000000000000000000000000000000000000000000000000000000000000000000000000000000000000000000000000000000000000000000000000000000000000000000000000000000000000000000000000000000000000000000000000000000000000000000000000000000000000000000000000000000000000000000000000000000000000000000000000000000000000000000000000000000000000000000000000000000000000000000000000000000000000000000000000000000000000000000000000000000000000000000000000000000000000000000000000000000000000000000000000000000000000000000000000000000000000000000000000000000000000000000000000000000000000000000000000000000000000000000000000000000000000000000000000000000000000000000000000000000000000000000000000000000000000000000000000000000000000000000000000000000000052220000000000000000000000000000000000000000000000000000000000000000000000000000000000000000000000000000000000000000000000000000000000000000000000000000000000000000000000000000000000000000000000000000000000000000000000000000000000000000000000000000000000000000000000000000000000000000000000000000000000000000000000000000000000000000000000000000000000000000000000000000000000000000000000000000000000000000000000000000000000000000000000000000000000000000000000000000000000000000000000000000000000000000000000000000000000000000000000000000000000000000000000000000000000000000000000000000000000000000000000000000000000000000000000000000000000000000000000000000000000000000000000000000000000000000000000000000000000000000000000000000000000000000000000000000000000000000000000000000000000000000000000000000000000000000000000000000000000000000000000000000000000000000000000000000000000000000000000000000000000000000000000000000000000000000000000000000000000000000000000
#014980:0012000000000000
#0149a0:000000000000000000000000000000000000000000000000000000000000000000000000000000000000000000000000000000000000000000000000000000000000000000000000000000000000000000000000000000000000000000000000000000000000000000000000000000000000000000000000000000000000000000000000000000000000000000000000000000000000000000000000000000000000000000000000000000000000000000000000000000000000000000000000000000000000000000000000000000000000000000000000000000000000000000000000000000000000000000000000000000000000000000000000000000000000000000000000000000000000000000000000000000000000000000000000000000000000000000000000000000000000000000000000000000000000000000000000000000000000000000000000000000000000000000000000000000000000000000000000000000000000000000000000000000000000000000000000000000000000000000000000000000000000000000000000000000000000000000000000000000000000000000000000000000000000000000000000000000000000000000000000000000000000000000000000000000000000000000000000000000000000000000000000000000000000000000000000000000000000000000000000000000000000000000000000000000000000000000000000000000000000000000000000000000000000000000000000000000000000000000000000000000000000000000000000000000000000000000000000000000000000000000000000000000000000000000000000000000000000000000000000000000000000000000000000000000000000000000000000000000000000000000000000000000000000000000000000000000000000000000000000000000000000000000000000000000000000000000000052220000000000000000000000000000000000000000000000000000000000000000000000000000000000000000000000000000000000000000000000000000000000000000000000000000000000000000000000000000000000000000000000000000000000000000000000000000000000000000000000000000000000000000000000000000000000000000000000000000000000000000000000000000000000000000000000000000000000000000000000000000000000000000000000000000000000000000000000000000000000000000000000000000000000000000000000000000000000000000000000000000000000000000000000000000000000000000000000000000000000000000000000000000000000000000000000000000000000000000000000000000000000000000000000000000000000000000000000000000000000000000000000000000000000000000000000000000000000000000000000000000000000000000000000000000000000000000000000000000000000000000000000000000000000000000000000000000000000000000000000000000000000000000000000000000000000000000000000000000000000000000000000000000000000000000000000000000000000000000000000000000000000000000000000000000000000000000000000000000000000000000000000000000000000000000000000000000000000000000000000000000000000000000000000000000000000000000000000000000000000000000000000000000000000000000000000000000000000000000000000000000000000000000000000000000000000000000000000000000000000000000000000000000000000000000000000000000000000000000000000000000000000000000000000000000000000000000000000000000000000000000000000000000000000000000000000000000000000000000000000000000000000000000000000000000000000000000000000000000000000000000000000000000000000000000000000000000000000000000000000000000000000000000000000000000000000000000000000000000000000000000000000000000000000000000000000000000000000000000000000000000000000000000000000000000000000000000000000000000000000000000000000000000000000000000000000000000000000000000000000000000000000000000000000000000000000000000000000000000000000000000000000000000000000000000000000000000000000000000000000000000000000000000000000000000000000000000000000000000000000000000000000000000000000000000000000000000000000000000000000000000000000000000000000000000000000000000000000000000000000000000000000000000000000000000000000000000000000000000000000000000000000000000000000000000000000000000000000000000000000000000000000000000000000000000000000000000000000000000000000000000000000000000000000000000000000000000000000000000000000000000000000000000000000000000000000000000000000000000000000
#049990:12
#050990:52
#0509c0:00000022
#049951:0000000000120000
#050951:52
#050921:00000022
