This file was generated by Ched 2.7.0.0.
#TITLE ""
#ARTIST ""
#DESIGNER ""
#DIFFICULTY 0
#PLAYLEVEL
#SONGID ""
#WAVE ""
#WAVEOFFSET 0
#JACKET ""
#REQUEST "ticks_per_beat 480"
#00002: 4
#BPM01: 90
#00008: 01
#TIL00: ""
#VOLUME: ""
#HISPEED 00
#MEASUREHS 00
#00914:14
#01018:14
#01114:14
#0121a:14
#01312:14
#0141a:14
#01410:41
#01512:14
#02212:14
#02312:14
#0281a:14
#0281f:11
#02912:14
#03018:14
#00818:14
#00810:41
#01618:14
#01718:14
#01814:14
#01914:14
#0201a:14
#02010:41
#0211a:14
#03418:0016
#03412:16
#03410:41
#03612:0016
#03618:16
#03718:1616
#03812:1616
#03918:16
#03912:0016
#04018:16000026
#04012:0026
#0441a:14
#03318:26
#0331f:21
#04110:41
#02610:41
#0445a:64
#004380:14
#005380:24
#006340:14
#007340:24
#024380:14
#025380:0024
#026340:14
#027340:0024
#031340:14
#032320:24
#033380:1626
#035320:1626
#041320:16
#042320:24
#043380:16
#0443a0:34
#044390:0054
#045380:26
