This file was generated by Ched 2.7.0.0.
#TITLE ""
#ARTIST ""
#DESIGNER ""
#DIFFICULTY 0
#PLAYLEVEL
#SONGID ""
#WAVE ""
#WAVEOFFSET 0
#JACKET ""
#REQUEST "ticks_per_beat 480"
#00002: 4
#BPM01: 192
#00008: 01
#TIL00: "71'1919:10000.0, 72'0:1.0"
#VOLUME: ""
#HISPEED 00
#MEASUREHS 00
#02214:14
#0231a:14
#02414:14
#02410:0000000000000041
#02518:14
#02612:14
#02718:14
#04712:0016
#04718:26
#0471f:21
#04710:0041
#04818:1616
#04918:0016
#04912:16
#0051a:14
#00510:41
#00614:14
#0071a:14
#00814:14
#00918:14
#01012:14
#01118:14
#01212:14
#02812:14
#0371a:14
#0371f:11
#03814:14
#03918:14
#04012:14
#0411a:14
#04214:14
#04318:14
#04412:14
#0451a:14
#05012:1616
#05118:16
#05112:0016
#05312:16
#05318:0016
#05518:2616
#05612:1616
#05718:1616
#05812:1616
#06318:16
#06312:0016
#06418:16
#06412:0016
#04612:26
#06712:00260000
#0211a:24
#05918:26
#05912:0026
#05910:41
#06112:26
#06118:0026
#01914:34
#01813:34
#01518:34
#01510:41
#01419:34
#03412:3434
#03512:34
#03513:0034
#03312:0034
#0301a:3434
#0311a:34
#03119:0034
#0291a:0034
#03610:41
#001390:14000034
#002390:0024
#003330:1400000000000034
#004330:0024
#0133a0:14
#014390:34
#015380:34
#016380:24
#017320:14
#018330:34
#019340:34
#020340:24
#0293a0:1434
#0303a0:3434
#0313a0:34
#031390:0034
#032380:24
#033320:1434
#034320:3434
#035320:34
#035330:0034
#036340:24
#052380:1626
#054320:1626
#060380:1626
#062320:1626
#065380:16
#066380:26
#067320:00160000
#069340:00000026
#0729d0:112100000000000000000000000000000000000000000000000000000000000000000000000000000000000000000000000000000000000000000000000000000000000000000000000000000000000000000000000000000000000000000000000000000000000000000000000000000000000000000000000000000000000000000000000000000000000000000000000000000000000000000000000000000000000000000000000000000000000000000000000000000000000000000000000000000000000000000000000000000000000000000000000000000000000000000000000000000000000000000000000000000000000000000000000000000000000000000000000000000000000000000000000000000000000000000000000000000000000000000000000000000000000000000000000000000000000000000000000000000000000000000000000000000000000000000000000000000000000000000000000000000000000000000000000000000000000000000000000000000000000000000000000000000000000000000000000000000000000000000000000000000000000000000000000000000000000000000000000000000000000000000000000000000000000000000000000000000000000000000000000000000000000000000000000000000000000000000000000000000000000000000000000000000000000000000000000000000000000000000000000000000000000000000000000000000000000000000000000000000000000000000000000000000000000000000000000000000000000000000000000000000000000000000000000000000000000000000000000000000000000000000000000000000000000000000000000000000000000000000000000000000000000000000000000000000000000000000000000000000000000000000000000000000000000000000000000000000000000000000000000000000000000000000000000000000000000000000000000000000000000000000000000000000000000000000000000000000000000000000000000000000000000000000000000000000000000000000000000000000000000000000000000000000000000000000000000000000000000000000000000000000000000000000000000000000000000000000000000000000000000000000000000000000000000000000000000000000000000000000000000000000000000000000000000000000000000000000000000000000000000000000000000000000000000000000000000000000000000000000000000000000000000000000000000000000000000000000000000000000000000000000000000000000000000000000000000000000000000000000000000000000000000000000000000000000000000000000000000000000000000000000000000000000000000000000000000000000000000000000000000000000000000000000000000000000000000000000000000000000000000000000000000000000000000000000000000000000000000000000000000000000000000000000000000000000000000000000000000000000000000000000000000000000000000000000000000000000000000000000000000000000000000000000000000000000000000000000000000000000000000000000000000000000000000000000000000000000000000000000000000000000000000000000000000000000000000000000000000000000000000000000000000000000000000000000000000000000000000000000000000000000000000000000000000000000000000000000000000000000000000000000000000000000000000000000000000000000000000000000000000000000000000000000000000000000000000000000000000000000000000000000000000000000000000000000000000000000000000000000000000000000000000000000000000000000000000000000000000000000000000000000000000000000000000000000000000000000000000000000000000000000000000000000000000000000000000000000000000000000000000000000000000000000000000000000000000000000000000000000000000000000000000000000000000000000000000000000000000000000000000000000000000000000000000000000000000000000000000000000000000000000000000000000000000000000000000000000000000000000000000000000000000000000000000000000000000000000000000000000000000000000000000000000000000000000000000000000000000000000000000000000000000000000000000000000000000000000000000000000000000000000000000000000000000000000000000000000000000000000000000000000000000000000000000000000000000000000000000000000000000000000000000000000000000000000000000000000000000000000000000000000000000000000000000000000000000000000000000000000000000000000000000000000000000000000000000000000000000000000000000000000000000000000000000000000000000000000000000000000000
