This file was generated by Ched 2.7.0.0.
#TITLE ""
#ARTIST ""
#DESIGNER ""
#DIFFICULTY 0
#PLAYLEVEL
#SONGID ""
#WAVE ""
#WAVEOFFSET 0
#JACKET ""
#REQUEST "ticks_per_beat 480"
#00002: 4
#BPM01: 170
#00008: 01
#TIL00: ""
#VOLUME: ""
#HISPEED 00
#MEASUREHS 00
#0051a:14
#00510:41
#0061a:14
#00712:14
#0111a:14
#01110:41
#01212:14
#0131a:14
#01412:14
#01518:14
#01614:14
#01718:14
#0191a:14
#04318:2616
#0431f:21
#06018:14
#0201a:14
#03318:14
#03414:14
#03214:14
#03118:14
#03110:41
#03918:14
#04014:14
#0411a:14
#04212:14
#0621a:14
#06314:14
#00812:14
#00919:14
#00913:14
#01814:14
#02112:14
#02110:41
#02212:14
#02318:14
#02418:14
#02514:14
#02614:14
#04412:1616
#04410:41
#04612:16
#04618:0016
#04712:1616
#04818:1616
#04912:16
#04918:0016
#05012:16
#05018:0016
#05112:2616
#05218:1616
#05418:16
#05412:0016
#05518:1616
#05510:41
#05612:1616
#05814:14
#05818:0014
#05914:14
#06112:14
#06418:14
#06512:14
#0351f:11
#001380:16
#002380:26
#003320:16
#004320:26
#0273a0:14
#028380:24
#029320:14
#030340:24
#035380:14
#0363a0:24
#037340:14
#038320:24
#045380:1626
#053320:1626
#057380:1626
#0663a0:14
#067390:34
#068380:26
