This file was generated by Ched 2.7.0.0.
#TITLE ""
#ARTIST ""
#DESIGNER ""
#DIFFICULTY 0
#PLAYLEVEL
#SONGID ""
#WAVE ""
#WAVEOFFSET 0
#JACKET ""
#REQUEST "ticks_per_beat 480"
#00002: 4
#BPM01: 150
#00008: 01
#TIL00: ""
#VOLUME: ""
#HISPEED 00
#MEASUREHS 00
#00418:16
#00512:16
#0071a:14
#00710:41
#00814:14
#0091a:14
#01014:14
#01118:14
#01212:14
#01318:14
#01412:14
#02014:14
#02118:14
#02212:14
#0231a:14
#02512:0016
#02518:26
#02510:41
#02712:16
#02718:0016
#02918:16
#02912:0016
#03112:16
#03118:0016
#03614:14
#03718:14
#04118:14
#04212:14
#0431a:14
#04414:14
#04812:14
#04918:14
#05018:14
#05114:14
#05214:14
#05518:0016
#05512:26
#0551f:21
#05712:0016
#05718:16
#05918:0016
#05912:16
#06112:0016
#06118:16
#06312:2616
#06518:1616
#0741a:14
#07514:14
#07618:14
#00118:14
#00214:14
#00612:16
#02412:14
#04712:14
#0471f:11
#06712:1616
#06918:1616
#07214:00000016
#07212:26
#07712:14
#00318:26
#01518:26
#03318:26
#03312:0026
#03418:26
#03812:24
#0381a:0024
#03912:26
#03910:41
#07112:26
#07118:0026
#07818:24
#01610:41
#05610:41
#06810:41
#03952:56
#07252:56
#07254:00000026
#016340:1434
#017340:24
#018380:1434
#019380:24
#026380:1626
#028320:1626
#030380:1626
#032320:1626
#034380:16
#035380:26
#039320:16
#040340:26
#045380:14
#0463a0:24
#0533a0:14
#0543a0:24
#056320:1626
#058380:1626
#060320:1626
#062380:1626
#064320:1626
#066380:1626
#068320:1626
#070380:1626
#072320:16
#072340:00000056
#073320:0026
