This file was generated by Ched 2.7.0.0.
#TITLE ""
#ARTIST ""
#DESIGNER ""
#DIFFICULTY 0
#PLAYLEVEL
#SONGID ""
#WAVE ""
#WAVEOFFSET 0
#JACKET ""
#REQUEST "ticks_per_beat 480"
#00002: 4
#BPM01: 150
#00008: 01
#TIL00: ""
#VOLUME: ""
#HISPEED 00
#MEASUREHS 00
#04714:00120012
#04716:140000000000000000000000000000000000000000000000000000000000000000000000000000000000000000000000000000000000000000000000000000000000000000000000000000000000000000000000000000000000000000000000000000000000000000000000000000000000000000000000000000000000000000000000000000000000000000000000000000000000000000000000000000000000000000000000000000000000000000000000000000000000000000000000000000000000000000000000000000000000000000000000000000000000000000000000000000000000000000000000000000000000000000000000000000000000000000000000000000000000000000000000000000000000000000000000000000000000000000000000000000000000000000000000000000000000000000000000000000000000000000000000000000000000000000000000000000000000000000000000000000000000000000000000000000000000000000000000000000000000000000000000000000000000000000000000000000000000000000000000000000000000000000000000000000000000000000000000000000000000000000000000000000000000000000000000000000000000000000000000000000000000000000000000000000000000000000000000000000000000000000000000000000000000000000000000000000000000000000000000000000000000000000000000000000000000000000000000000000000000000000000000000000000000000000000000000000000000000000000000000000000000000000000000000000000000000000000000000000000000000000000000000000000000000000000000000000000000000000000000000000000000000000000000000000000000000000000000000000000000000000000000000000000000000000000000000000000000000000000000000000000000000000000000000000000000000000000000000000000000000000000000000000000000000000000000000000000000000000000000000000000000000000000000000000000000000000000000000000000000000000000000000000000000000000000000000000000000000000000000000000000000000000000000000000000000000000000000000000000000000000000000000000000000000000000000000000000000000000000000000000000000000000000000000000000000000000000000000000000000000000000000000000000000000000000000000000000000000000000000000000000000000000000000000000000000000000000000000000000000000000000000000000000000000000000000000000000000000000000000000000000000000000000000000000000000000000000000000000000000000000000000000000000000000000000000000000000000000000000000000000000000000000000000000000000000000000000000000000000000000000000000000000000000000000000000000000000000000000000000000000000000000000000000000000000000000000000000000000000000000000000000000000000000000000000000000000000000000000000000000000000000000000000000000000000000000000000000000000000000000000000000000000000000000000000000000000000000000000000000000000000000000000000000000000000000000000000000000000000000000000000000000000000000000000000000000000000000000000000000000000000000000000000000000000000000000000000000000000000000000000000000000000000000000000000000000000000000000000000000000000000000000000000000000000000000000000000000000000000000000000000000000000000000000000000000000000000000000000000000000000000000000000000000000000000000000000000000000000000000000000000000000000000000000000000000000000000000000000000000000000000000000000000000000000000000000000000000000000000000000000000000000000000000000000000000000000000000000000000000000000000000000000000000000000000000000000000000000000000000000000000000000000000000000000000000000000000000000000000000000000000000000000000000000000000000000000000000000000000000000000000000000000000000000000000000000000000000000000000000000000000000000000000000000000000000000000000000000000000000000000000000000000000000000000000000000000000000000000000000000000000000000000000000000000000000000000000000000000000000000000000000000000000000000000000000000000000000000000000000000000000000000000000000000000000000000000000000000000000000000000000000000000000000000000000000000000000000000000000000000000000000000000000000000000000000000000000000000000000000000000000000000000000000000000000000000000000000000000000074
#0471a:0014
#0471f:11
#04712:24
#0011a:0000000012000012
#00116:00001200000000120000000012000000
#00118:00000012000012000000120000000000
#00114:1200120000000012
#00317:2313
#00319:0000000000130013
#00314:0000000000130013
#00312:14140013
#00316:0014001400000000
#0031a:00140014
#0031b:0013001300000000
#0041b:0000001300130000
#00412:13141314
#0041a:14000014
#00413:0013000000000000
#00416:0014001300130000
#00417:0013
#00914:0013000000000000
#00912:13130013
#00915:0000000000130013
#0091b:13131313
#00918:00000000000000000000000000000013
#00919:0013000000000000
#00917:0000001300000000
#01016:24000014
#01012:00242413
#0101b:13
#01018:0000000000130000
#01015:00000000000000000000001300000000
#0101a:00000024240000002400000000000000
#01014:0000002800000000
#0131b:13000013
#01315:0000000000160016
#01312:00000000000000131300000000000000
#01316:54545454540000001400000014000000
#0131a:00140000
#02214:0000000000160016
#02216:0015000000001600
#02212:1500001316000000
#0221b:0013000000000000
#02219:00150000
#02215:0000001500000000
#02217:15
#02519:0000000000000013
#0251b:00000013
#02516:24141400
#02512:0014001400000000
#02514:0000000000000013
#0251a:64242400
#02510:41
#02612:00130000
#02619:0000001300000000
#02616:13
#0261b:13
#02617:00000013130000000000000000000000
#0261a:0014
#02614:0000001300000000
#03116:13001414
#03117:00130000
#03114:0000001300000000
#03119:0000001300000000
#0311a:0014
#03112:00000014
#0321a:00000014
#03212:00000013000000130000000014000000
#03218:00130000001300001300130000001300
#03215:00001300000013000013001300000013
#0321b:13130000
#03312:2400130000140000
#03319:0000001300000000
#03317:00130000
#03314:0000001300000000
#03316:0000000014000014
#0331a:24002414
#0481a:00120012
#04812:0014
#04815:66
#04816:007400000000000000000000000000000000000000000000000000000000000000000000000000000000000000000000000000000000000000000000000000000000000000000000000000000000000000000000000000000000000000000000000000000000000000000000000000000000000000000000000000000000000000000000000000000000000000000000000000000000000000000000000000000000000000000000000000000000000000000000000000000000000000000000000000000000000000000000000000000000000000000000000000000000000000000000000000000000000000000000000000000000000000000000000000000000000000000000000000000000000000000000000000000000000000000000000000000000000000000000000000000000000000000000000000000000000000000000000000000000000000000000000000000000000000000000000000000000000000000000000000000000000000000000000000000000000000000000000000000000000000000000000000000000000000000000000000000000000000000000000000000000000000000000000000000000000000000000000000000000000000000000000000000000000000000000000000000000000000000000000000000000000000000000000000000000000000000000000000000000000000000000000000000000000000000000000000000000000000000000000000000000000000000000000000000000000000000000000000000000000000000000000000000000000000000000000000000000000000000000000000000000000000000000000000000000000000000000000000000000000000000000000000000000000000000000000000000000000000000000000000000000000000000000000000000000000000000000000000000000000000000000000000000000000000000000000000000000000000000000000000000000000000000000000000000000000000000000000000000000000000000000000000000000000000000000000000000000000000000000000000000000000000000000000000000000000000000000000000000000000000000000000000000000000000000000000000000000000000000000000000000000000000000000000000000000000000000000000000000000000000000000000000000000000000000000000000000000000000000000000000000000000000000000000000000000000000000000000000000000000000000000000000000000000000000000000000000000000000000000000000000000000000000000000000000000000000000000000000000000000000000000000000000000000000000000000000000000000000000000000000000000000000000000000000000000000000000000000000000000000000000000000000000000000000000000000000000000000000000000000000000000000000000000000000000000000000000000000000000000000000000000000000000000000000000000000000000000000000000000000000000000000000000000000000000000000000000000000000000000000000000000000000000000000000000000000000000000000000000000000000000000000000000000000000000000000000000000000000000000000000000000000000000000000000000000000000000000000000000000000000000000000000000000000000000000000000000000000000000000000000000000000000000000000000000000000000000000000000000000000000000000000000000000000000000000000000000000000000000000000000000000000000000000000000000000000000000000000000000000000000000000000000000000000000000000000000000000000000000000000000000000000000000000000000000000000000000000000000000000000000000000000000000000000000000000000000000000000000000000000000000000000000000000000000000000000000000000000000000000000000000000000000000000000000000000000000000000000000000000000000000000000000000000000000000000000000000000000000000000000000000000000000000000000000000000000000000000000000000000000000000000000000000000000000000000000000000000000000000000000000000000000000000000000000000000000000000000000000000000000000000000000000000000000000000000000000000000000000000000000000000000000000000000000000000000000000000000000000000000000000000000000000000000000000000000000000000000000000000000000000000000000000000000000000000000000000000000000000000000000000000000000000000000000000000000000000000000000000000000000000000000000000000000000000000000000000000000000000000000000000000000000000000000000000000000000000000000000000000000000000000000000000000000000000000000000000000000000000000000000000000000000000000000000000000000000000000000000000000074
#05116:54130000
#05117:00001313
#0631a:0014
#06318:16260000
#0631b:0013000000000000
#06312:1613260000000000
#06315:0000000000140000
#06316:0000000024000014
#06716:00000013
#0671b:00000013
#06718:1600001600000000
#06712:2616160000000000
#06715:0000000000000016
#06814:0000001300000000
#0681a:0014
#06812:1314
#06817:13
#0681b:00000013130000000000000000000000
#06816:00130014
#06819:0000001300000000
#06810:41
#06916:14140000
#06914:0000001300001400
#06919:0000001300000000
#06912:0000000014140014
#0691a:0000000014140014
#06918:00000014
#07015:0000000000130013
#0701b:00000000000000130013001300000000
#07012:14000000000000000000000000000000000000000000000000000000000000000000000000000000000000000000000000000000000000000000000000000000000000000000000000000000000000000000000000000000000000000000000000000000000000000000000000000000000000000000000000000000000000000000000000000000000000000000000000000000000000000000000000000000000000000000000000000000000000000000000000000000000000000000000000000000000000000000000000000000000000000000000000000000000000000000000000000000000000000000000000000000000000000000000000000000000000000000000000000000000000000000000000000000000000000000000000000000000000000000000000000000000000000000000000000000000000000000000000000000000000000000000000000000000000000000000000000000000000000000000000000000000000000000000000000000000000000000000000000000000000000000000000000000000000000000000000000000000000000000000000000000000000000000000000000000000000000000000000000000000000000000000000000000000000000000000000000000000000000000007c0000000000000000000000000000000000000000000000000000000000000000000000000000000000000000000000000000000000000000000000000000000000000000000000000000000000000000000000000000000000000000000000000000000000000000000000000000000000000000000000000000000000000000000000000000000000000000000000000000000000000000000000000000000000000000000000000000000000000000000000000000000000000000000000000000000000000000000000000000000000000000000000000000000000000000000000000000000000000000000000000000000000000000000000000000000000000000000000000000000000000000000000000000000000000000000000000000000000000000000000000000000000000000000000000000000000000000000000000000000000000000000000000000000000000000000000000000000000000000000000000000000000000000000000000000000000000000000000000000000000000000000000000000000000000000000000000000000000000000000000000000000000000000000000000000000000000000000000000000000000000000000000000000000000000000000000000000000000000000000000001c00000000000000000000000000000000000000000000000000000000000000000000000000000000000000000000000000000000000000000000000000000000000000000000000000000000000000000000000000000000000000000000000000000000000000000000000000000000000000000000000000000000000000000000000000000000000000000000000000000000000000000000000000000000000000000000000000000000000000000000000000000000000000000000000000000000000000000000000000000000000000000000000000000000000000000000000000000000000000000000000000000000000000000000000000000000000000000000000000000000000000000000000000000000000000000000000000000000000000000000000000000000000000000000000000000000000000000000000000000000000000000000000000000000000000000000000000000000000000000000000000000000000000000000000000000000000000000000000000000000000000000000000000000000000000000000000000000000000000000000000000000000000000000000000000000000000000000000000000000000000000000000000000000000000000000000000000000000000000000000001c0000000000000000000000000000000000000000000000000000000000000000000000000000000000000000000000000000000000000000000000000000000000000000000000000000000000000000000000000000000000000000000000000000000000000000000000000000000000000000000000000000000000000000000000000000000000000000000000000000000000000000000000000000000000000000000000000000000000000000000000000000000000000000000000000000000000000000000000000000000000000000000000000000000000000000000000000000000000000000000000000000000000000000000000000000000000000000000000000000000000000000000000000000000000000000000000000000000000000000000000000000000000000000000000000000000000000000000000000000000000000000000000000000000000000000000000000000000000000000000000000000000000000000000000000000000000000000000000000000000000000000000000000000000000000000000000000000000000000000000000000000000000000000000000000000000000000000000000000000000000000000000000000000000000000000000000000000000000000000000000
#07018:00000000000000000000000000130013
#0701a:14
#07114:00130024
#07119:00130000
#07113:0000001300000000
#0711a:0000001300000000
#07112:2c2c
#07118:00000024
#00218:0000001200000000
#00216:00001300000000120000000000000000
#0021a:12121224
#00214:1212
#00217:0000000000120000
#00212:00000024
#00615:00000000000023000013000000000000
#0061b:00000000000000000000001300000000
#00612:0024240024001300
#00618:00000000002300000000130000000000
#00617:0023000000000000
#00616:23
#0061a:64242400
#0081b:13130000
#00815:00000013130000000000000000000013
#00812:1300001300140000
#00818:0000001300000013
#0081a:0014
#00816:0000000014140000
#01116:00141400
#01112:2400000000000000000000001400000000540000000000000000000000000000
#0111a:0000000000000000000000001400000000540000000000000000000000000000
#01115:0000000000000013
#01118:00000000000000000000000000000000000000000000000000000000000000000054000000000000000000000000000000000000000000000000000013000000
#01114:00000000000000000000000000000000000000000000000000000000000000000054000000000000000000000000000000000000000000000000000000000000
#01619:15151515000000000000000000000000
#01617:0015001500150015000000000000000000000000000000000000000000000000
#01618:00150015001500150015001500150015000000000000000000000000000000000000000000000000000000000000000000000000000000000000000000000000
#01612:24000000140000001515151500001800
#01616:0000001800000000
#01614:0000000000000000000000000000000000150015001500150000000000000000
#01613:00000000000000000000000000000000000000000000000000000000000000000015001500150015001500150015001500000000000000000000000000000000
#0161a:00002414
#01610:41
#0171b:13131300
#01712:13000000130000001300001418000000
#01715:00000013000013000000000000000000
#01718:0000001300000000
#01812:1400001824001400
#01816:0014000000140018
#0181a:24141400
#01912:13131300
#0191b:13131300
#01918:00000013000013000000000000000013
#01915:0000001300000013
#0191a:00000000000000000000001400000000
#01916:00000018
#02016:13000000000000130000000000000000
#02017:00000013130000000000000000001300
#0201b:13
#02318:16
#02316:0000001400000000
#0231a:00141400
#02319:00000015
#02312:2613
#02912:24242413
#02912:00000013
#02916:14141400
#0291a:0014001400000000
#02914:0000000000000013
#02919:0000000000000013
#03512:1300001313001300
#0351b:00000013000000001300130000000000
#03517:0000171300000000
#03518:2600000000000013
#03515:00000000000000000000000000000013
#0361b:1300001300001300
#03612:13000013170000001300000000000000
#03615:0000000000000013
#03616:0000001300130000
#03617:0013
#03618:00000000000000000000000000000013
#04118:0000001300000000
#04112:14
#04116:1300000000130013
#04117:00001313
#0411b:0013
#04212:1300130014000013
#04218:00001300000000000000000000000013
#0421b:00000013000013000000000000000000
#04216:0000000000140000
#04215:00130000000000000000000000000000
#04315:00000000000000000000130000130000
#04318:00130000000000000000001300001300
#0431b:00000000000000000000000013000013
#04312:2613000000001300
#04317:0000001300000000
#04316:0013
#0451b:00130000
#04518:26000000001300000000000000000000
#04515:0000001300000000
#04512:13000000000000130000000000000000
#04612:00130014
#04614:0000000000130013
#0461a:14000014
#04616:00000000000000141400000000000000
#04619:0000000000130013
#05412:001400160018001a2c00000013000000
#05418:0016000000000000
#05414:0000001a00000000
#05416:00280014
#0541a:24
#06512:14000014140000001400000014000000
#0651a:1400001414140014
#06516:00000000000000000014001400140000
#00516:1314001413000000
#00514:0000000000130000
#0051a:14140000
#0051b:00000013
#00519:000000000000000000000000000000130000000000000054
#00512:0013141300001413
#00517:0000000000000014
#00518:000000000000000000000054
#00712:00141414
#00716:0014000000000000
#0071a:14141400
#00715:0000001400000013
#00718:00000000000000000000000000000013
#00710:41
#01212:13000013
#0121b:0000000013000013
#01214:0000000000130000
#01218:0013000000000000
#01219:00130000
#0121a:0000001300000000
#01416:14000000140000000000000000140000
#01412:1400001414001400
#0141a:0014140014140014
#01518:00000016
#01515:0000000000000016
#01516:24
#01514:00280000
#01512:002c
#02116:14000014140000140000000000001400
#02112:13
#02712:1400140000000016
#0271a:1400001414000000
#02716:0014001400000000
#02714:00000000000000000000001400000000
#02718:0000000000141600
#0301b:00130000
#03014:0000001300000000
#03017:13000013
#03012:1314
#03016:00000013130000001400000000000000
#03019:0000001300000000
#02812:0014000014000014
#0281a:14000000000000000000140000000014
#02816:0054000000540000000000000000000014000000000000000000000000000000
#02818:00540000000000000000000000000000000000000000000000000000000000000000000000000000000000000000000000000000000000000000000000000000
#02814:00000000000000000054000000000000000000000000000000000000000000000000000000000000000000000000000000000000000000000000000000000000
#03418:00130013000000000000000000000000
#03415:0013000000000000
#03419:00000000001300130000000000000000
#03416:0000001300000000
#0341a:00000000000000000013001300000000
#03417:0000000000130000
#03412:23242526
#03712:1213
#03718:00120000000000000000000000000000
#03714:0012001200130013
#0371a:00000012000000120000000000000000
#03716:00120013
#0371c:00000000001200000000000000000000
#03717:00000000000000000013000000000000
#03719:00000000000000000000001300000013
#0371b:00000000000000000000000000130000
#03812:14151666
#03818:00140000000000000000560026000000
#03814:000000140000000000150000005600000056000000000000
#0381a:00000014000000000000000000000000
#03817:00000000001500000000000000000000
#03819:00000000000000150000000000000000
#03816:000000000000005656000000
#03914:0015001500150015000000000000000000000000000000000015001500150015
#03912:2500000000000000000000000000000000000000000000001500000000000000000000000000000000000000000000001500000000000000000000000000000000000000000000001500000000000000000000000000000000000000000000755c00000000000000000000000000000000000000000000000000000000000000000000000000000000000000000000000000000000000000000000000000000000000000000000000000000000000000000000000000000000000000000000000000000000000000000000000000000000000000000000000000000000000000000000000000000000000000000000000000000000000000000000000000000000000000000000000000000000000000000000000000000000000000000000005c8500000000000000000000000000000000000000000000150000000000000000000000000000000000000000000000150000000000000000000000000000000000000000000000150000000000000000000000000000000000000000000000
#03913:00150015001500150015001500150015000000000000000000000000000000000000000000000000000000000000000000150015001500150015001500150015
#03917:000000000000000000000000000000000000000000000000000000150000000000150000000000150000000000150000000000001500000000000000150000000000000015000000000000000000000000000000000000000000000000000000
#03918:000000000000000000000000000000000000000000000000000000000000000000000000000000000000000000000000000000150000000000150000000000150000000000150000000000150000000000150000000000150000000000150000000000001500000000000000150000000000000015000000000000001500000000000000150000000000000015000000000000000000000000000000000000000000000000000000000000000000000000000000000000000000000000000000
#03919:250000000000000000000000000000000000000000000000000000000000000000000000000000000000000000000000000000000000000000000000000000000000000000000000000000000000000000000000000000000000000000000000008500000000000000000000000000000000000000000000150000000000000000000000000000000000000000000000150000000000000000000000000000000000000000000000150000000000000000000000000000000000000000000000150000000000000000000000000000000000000000000000000000000000000015000000000000000000000000000000000000000000000000000000000000001500000000000000000000000000000000000000000000000000000000000075000000000000000000000000000000000000000000000000000000000000000000000000000000000000000000000000000000000000000000000000000000000000000000000000000000000000000000000000000000000000000000000000
#03910:41
#04014:001500150015000000000000000000000000000000130000
#04019:000000000000000000000000000000000000000000000000000000000000000000000000000000000000000000000000000000000000000000000000000000000000000000000000000000000000000000000000000000000000000000000000008500000000000000000000000000000000000000000000150000000000000000000000000000000000000000000000150000000000000000000000000000000000000000000000150000000000000000000000000000000000000000000000150000000000000000000000000000000000000000000000000000000000000015000000000000000000000000000000000000000000000000000000000000001500000000000000000000000000000000000000000000000000000000000000000000000000000000000000000000000000000000000000000000000000000000000000000000000000000000000000130000000000000000000000000000000000000000000000000000000000000000000000000000000000000000000000
#04012:1500000000000000000000000000000000000000000000000000000000000000150000000000000000000000000000000000000000000000000000000000000015000000000000000000000000000000000000000000000000000000000000755c0000000000000000000000000000000000000000000000000000000000000000000000000000000000000000000000000000000000000000000000000000000000000000000000000000000000000000000000000000000000000000000000000000000000000000000000000000000000000000000000000000000000000000000000000000000000000000000000000000000000000000000000000000000000000000000000000000000000000000000000000000000000000000000000000000000000000000000000000000000000000000000000000000000000000000000000000000000000000000000000000000000000000000000000000000000000000000000000000000000000000000000000000000000000000000000000
#04013:001500150015001500150015000000000000000000000000000000000000000000000000000000000000000000000000
#04017:000000000000000000000000000000000000000000000000000000150000000000150000000000150000000000150000000000001500000000000000150000000000000015000000000000000000000000000000000000000000000000000000
#04018:000000000000000000000000000000000000000000000000000000000000000000000000000000000000000000000000000000150000000000150000000000150000000000150000000000150000000000150000000000150000000000150000000000001500000000000000150000000000000015000000000000001500000000000000150000000000000015000000000000000000000000000000000000000000000000000000000000000000000000000000000000000000000000000000
#04412:0013000000000014
#04417:0000001300000000
#04418:00130000000000000000000000000000
#04415:13
#04914:00120012
#0491a:0014
#04915:66
#04916:007400000000000000000000000000000000000000000000000000000000000000000000000000000000000000000000000000000000000000000000000000000000000000000000000000000000000000000000000000000000000000000000000000000000000000000000000000000000000000000000000000000000000000000000000000000000000000000000000000000000000000000000000000000000000000000000000000000000000000000000000000000000000000000000000000000000000000000000000000000000000000000000000000000000000000000000000000000000000000000000000000000000000000000000000000000000000000000000000000000000000000000000000000000000000000000000000000000000000000000000000000000000000000000000000000000000000000000000000000000000000000000000000000000000000000000000000000000000000000000000000000000000000000000000000000000000000000000000000000000000000000000000000000000000000000000000000000000000000000000000000000000000000000000000000000000000000000000000000000000000000000000000000000000000000000000000000000000000000000000000000000000000000000000000000000000000000000000000000000000000000000000000000000000000000000000000000000000000000000000000000000000000000000000000000000000000000000000000000000000000000000000000000000000000000000000000000000000000000000000000000000000000000000000000000000000000000000000000000000000000000000000000000000000000000000000000000000000000000000000000000000000000000000000000000000000000000000000000000000000000000000000000000000000000000000000000000000000000000000000000000000000000000000000000000000000000000000000000000000000000000000000000000000000000000000000000000000000000000000000000000000000000000000000000000000000000000000000000000000000000000000000000000000000000000000000000000000000000000000000000000000000000000000000000000000000000000000000000000000000000000000000000000000000000000000000000000000000000000000000000000000000000000000000000000000000000000000000000000000000000000000000000000000000000000000000000000000000000000000000000000000000000000000000000000000000000000000000000000000000000000000000000000000000000000000000000000000000000000000000000000000000000000000000000000000000000000000000000000000000000000000000000000000000000000000000000000000000000000000000000000000000000000000000000000000000000000000000000000000000000000000000000000000000000000000000000000000000000000000000000000000000000000000000000000000000000000000000000000000000000000000000000000000000000000000000000000000000000000000000000000000000000000000000000000000000000000000000000000000000000000000000000000000000000000000000000000000000000000000000000000000000000000000000000000000000000000000000000000000000000000000000000000000000000000000000000000000000000000000000000000000000000000000000000000000000000000000000000000000000000000000000000000000000000000000000000000000000000000000000000000000000000000000000000000000000000000000000000000000000000000000000000000000000000000000000000000000000000000000000000000000000000000000000000000000000000000000000000000000000000000000000000000000000000000000000000000000000000000000000000000000000000000000000000000000000000000000000000000000000000000000000000000000000000000000000000000000000000000000000000000000000000000000000000000000000000000000000000000000000000000000000000000000000000000000000000000000000000000000000000000000000000000000000000000000000000000000000000000000000000000000000000000000000000000000000000000000000000000000000000000000000000000000000000000000000000000000000000000000000000000000000000000000000000000000000000000000000000000000000000000000000000000000000000000000000000000000000000000000000000000000000000000000000000000000000000000000000000000000000000000000000000000000000000000000000000000000000000000000000000000000000000000000000000000000000000000000000000000000000000000000000000000000000000000000000000000000000000000000000000000000000000000000000000000000000000000000000000000000000074
#0501a:00120012
#05012:0014
#05015:66
#05016:007400000000000000000000000000000000000000000000000000000000000000000000000000000000000000000000000000000000000000000000000000000000000000000000000000000000000000000000000000000000000000000000000000000000000000000000000000000000000000000000000000000000000000000000000000000000000000000000000000000000000000000000000000000000000000000000000000000000000000000000000000000000000000000000000000000000000000000000000000000000000000000000000000000000000000000000000000000000000000000000000000000000000000000000000000000000000000000000000000000000000000000000000000000000000000000000000000000000000000000000000000000000000000000000000000000000000000000000000000000000000000000000000000000000000000000000000000000000000000000000000000000000000000000000000000000000000000000000000000000000000000000000000000000000000000000000000000000000000000000000000000000000000000000000000000000000000000000000000000000000000000000000000000000000000000000000000000000000000000000000000000000000000000000000000000000000000000000000000000000000000000000000000000000000000000000000000000000000000000000000000000000000000000000000000000000000000000000000000000000000000000000000000000000000000000000000000000000000000000000000000000000000000000000000000000000000000000000000000000000000000000000000000000000000000000000000000000000000000000000000000000000000000000000000000000000000000000000000000000000000000000000000000000000000000000000000000000000000000000000000000000000000000000000000000000000000000000000000000000000000000000000000000000000000000000000000000000000000000000000000000000000000000000000000000000000000000000000000000000000000000000000000000000000000000000000000000000000000000000000000000000000000000000000000000000000000000000000000000000000000000000000000000000000000000000000000000000000000000000000000000000000000000000000000000000000000000000000000000000000000000000000000000000000000000000000000000000000000000000000000000000000000000000000000000000000000000000000000000000000000000000000000000000000000000000000000000000000000000000000000000000000000000000000000000000000000000000000000000000000000000000000000000000000000000000000000000000000000000000000000000000000000000000000000000000000000000000000000000000000000000000000000000000000000000000000000000000000000000000000000000000000000000000000000000000000000000000000000000000000000000000000000000000000000000000000000000000000000000000000000000000000000000000000000000000000000000000000000000000000000000000000000000000000000000000000000000000000000000000000000000000000000000000000000000000000000000000000000000000000000000000000000000000000000000000000000000000000000000000000000000000000000000000000000000000000000000000000000000000000000000000000000000000000000000000000000000000000000000000000000000000000000000000000000000000000000000000000000000000000000000000000000000000000000000000000000000000000000000000000000000000000000000000000000000000000000000000000000000000000000000000000000000000000000000000000000000000000000000000000000000000000000000000000000000000000000000000000000000000000000000000000000000000000000000000000000000000000000000000000000000000000000000000000000000000000000000000000000000000000000000000000000000000000000000000000000000000000000000000000000000000000000000000000000000000000000000000000000000000000000000000000000000000000000000000000000000000000000000000000000000000000000000000000000000000000000000000000000000000000000000000000000000000000000000000000000000000000000000000000000000000000000000000000000000000000000000000000000000000000000000000000000000000000000000000000000000000000000000000000000000000000000000000000000000000000000000000000000000000000000000000000000000000000000000000000000000000000000000000000000000000000000000000000000000000000000000000000000000000000000000000000000000000000000000000000000000000000000000000000000
#05214:13130000
#05217:1212
#05219:00001313
#05316:00140014
#0531a:22002414
#05314:22
#05312:0024
#05516:2414000000000013
#05512:00002413
#0551b:0000000000000013
#0551a:14141400
#05515:0000001400000000
#05514:00240000
#0551f:21
#0561b:00130000
#05614:0000001300000000
#05617:13
#05612:1314
#05616:00000013130000001400000000001400
#05619:0000001300000000
#0561a:0000000000140000
#05610:41
#06212:54005414
#0621a:00541414
#06218:00000054005400000000130000130013
#06215:00000000000000000013001300001300
#06214:00540000000000540000000000000000
#06216:5454005400000000
#0571a:14142400
#05712:1400001424002600
#05716:0014001400000000
#05714:0000000000240000
#05718:00000000000000000000002400002600
#05917:0000001400000013
#05912:1400140014000013
#0591b:00000013
#05916:2414000000000000
#05918:00240000
#0591a:0024
#06012:00130013
#06019:0000001300000000
#06016:1300000014140000
#0601b:13
#06017:00000013130000000000000000000000
#06014:0000001300000000
#0601a:0014
#05812:1400000000140014
#05816:0054000000540000000000000000000014000000000000000000000000001400
#0581a:0014000014000000
#05814:00540000000000000000000000000000000000000000000000000000000000000000000000000000000000000000000000000000000000000000000000000000
#05818:00000000000000000054000000000000000000000000000000000000000000000000000000000000000000000000000000000000000000000000000000000000
#06115:14
#0611a:0014000000001400
#06112:0014
#06412:0000001400000000240000000000000016000000000000000000000000000000
#06416:148400000000000000000000000000000000000000000000000000000000000000000000000000000000000000000000000000000000000000000000000000000000000000000000000000000000000000000000000000000000000000000000000000000000000000000000000000000000000000000000000000000000000000000000000000000000000000000000000000000000000000000000000000000000000000000000000000000000000000000000000000000000000000000000000000000000000000000000000000000000000000000000000000000000000000000000000000000000000000000000000000000000000000000000000000000000000000000000000000000000000000000000000000000000000000000000000000000000000000000000000000000000000000000000000000000000000000000000000000000000000000000000000000000000000000000000000000000000000000000084540000000000000000000000000000000000000000000000000000000000000000000000000000000000000000000000000000000000000000000000000000000000000000000000000000000000000000000000000000000000000000000000000000000000000000000000000000000000000000000000000000000000000000000000000000000000000000000000000000000000000000000000000000000000000000000000000000000000000000000000000000000000000000000000000000000000000000000000000000000000000000000000000000000000000000000000000000000000000000000000000000000000000000000000000000000000000000000000000000000000000000000000000000000000000000000000000000000000000000000000000000000000000000000000000000000000000000000000000000000000000000000000000000000000000000000000000000000000000000000000000000000000000000000000000000000000000000000000000000000000000000000000000000000000000000000000000000000000000000000000000000000000000000000000000000000000000000000000000000000000000000000000000000000000000000000000000000000000000000000000000000000000000000000000000000000000000000000000000000000000000000000000000000000000000000000000000000000000000000000000000000000000000000000000000000000000000000000000000000000000000000000000000000000000000000000000000000000000000000000000000000000000000000000000000000000000000000000000000000000000000000000000000000000000000000000000000000000000000000000000000000000000000000000000000000000000000000000000000000000000000000000000000000000000000000000000000000000000000000000000000000000000000000000000000000000000000000000000000000000000000000000000000000000000000000000000000000000000000000000000000000000000000000000000000000000000000000000000000000000000000000000000000000000000000000000000000000000000000000000000000000000000000000000000000000000000000000000000000000000000000000000000000000000000000000000000000000000000000000000000000000000000000000000000000000000000000000000000000000000000000000000000000000000000000000000000000000000000000000000000000000000000000000000000000000000000000000000000000000000000000000000000000000000000000000000000000000000000000000000000000000000000000000000000000000000000000000000000000000000000000000000000000000000000000000000000000000000000000000000000000000000000000000000000000000000000000000000000000000000000000000000000000000000000000000000000000000000000000000000000000000000000000000000000000000000000000000000000000000000000000000000000000000000000000000000000000000000000000000000000000000000000000000000000000000000000000000000000000000000000000000000000000000000000000000000000000000000000000000000000000000000000000000000000000000000000000000000000000000000000000000000000000000000000000000000000000000000000000000000000140000000000000000000000000000000000000000000000000000000000000000000000000000000000000000000000000000000000000000000000000000000000000000000000000000000000000000000000000000000000000000000000000000000000000000000000000000000000000000000000000000000000000000000000000000000000000000000000000000000000000000000000000000000000000000000000000000000000000000000000000000000000000000000000000000000000000000000000000000000000000000000000000000000000000000000000000000000000000000000000
#0641a:0000001400000000140000000000000000000000000000000000000000000000
#06418:0000002426160000
#06414:0000001400000000
#06618:00000000000000000064000000000000000000000000000000000000000000001600000000000000000000000000000000000000160000000000000016000000
#06612:0054000000000000000000000000000026000000160000001600000016000000
#06616:1424000000000000
#0661a:2400000000640000000000000000000000000000000000000000000000000000
#06614:00540000000000000000000000000000000000000000000000000000000000000000000000000000000000000000000000000000000000000000000000000000
#07216:00120000000000000000000000000000
#0721a:0012001224001400
#07214:00000012000000120000000000000014
#07218:0000120000130014
#07212:00000000001200000013000000140000
#07215:00000000000000000000001300000000
#0721c:22
#07312:001500170019001b2c1c1c1c24000000
#07318:0016000000000000
#07314:0000001a00000000
#0731a:00000024
#07319:25
#07316:00280000
#07417:2313
#07419:0000000000130013
#07414:0000000000130013
#07412:14140013
#07416:0014141400001400
#0741b:0013001300000000
#0751b:0000001300130000
#07512:00001313
#0751a:14
#07516:1314141414141400
#07513:0013000000000000
#07617:0000000000000014
#07614:0000000000130013
#07616:1314141413001400
#0761a:14140000
#0761b:00000013
#07619:000000000000000000000000000000130000000000000054
#07612:0013001300000000
#07618:000000000000000000000054
#07712:0000000000000000000000000000000000000000000000000000000000000000000000000000000000000000000000000000000000000000000000000000000000000000000000000000000000000000000000000000000000000000000000000000000000000000000000000000000000000000000000000000000000000000000000000000000000000000000000000000000000000000000000000000000000000000000000000000000000000000000000000000000000000000000000000000000000000000000000000000000000000000000000000000000000000000000000000000000000000000000000002400000000000000000000000000000000000000000000000000000000000000000000000000000000000000000000000000000000000000000000000000000000000000000000000000000000000000000000000000000000000000000000000000000000000000000000000000000000000000000000000000000000000000000000000000000000000000000000000000000000000000000000000000000000000000000000000000000000000000000000000000000000000000000000000000000000000000000000000000000000000000000000000000000000000000000000000000000000000000000000000000000000000000000000000000000000000000000000000000000000000000000000000000000000000000000000000000000000000000000000000000000000000000000000000000000000000000000000000000000000000000000000000000000000000000000000000000000000000000000000000000000000000000000000000000000000000000000000000000000000000000000000000000000000000000000000000000000000000000000000000000000000000000000000000000000000000000000000000000000000000000000000000000000000000000000000000000000000000000000000002c000000000000000000000000000000000000000000000000000000000000000000000000000000000000000000000000000000000000000000000000000000000000000000000000000000000000000000000000000000000000000000000000000000000000000000000000000000000000000000000000000000000000000000000000000000000000000000000000000000000000000000000000000000000000000000000000000000000000000000000000000000000000000000000000000000000000000000000000000000000000000000000000000000000000000000000000000000000000000000000024000000000000000000000000000000000000000000000000000000000000000000000000000000000000000000000000000000000000000000000000000000000000000000000000000000000000000000000000000000000000000000000000000000000000000000000000000000000000000000000000000000000000000000000000000000000000000000000000000000000000000000000000000000000000000000000000000000000000000000000000000000000000000000000000000000000000000000000000000000000000000000000000000000000000000000000000000000000000000000000000000000000000000000000000000000000000000000000000000000000000000000000000000000000000000000000000000000000000000000000000000000000000000000000000000000000000000000000000000000000000000000000000000000000000000000000000000000000000000000000000000000000000000000000000000000000000000000000000000000000000000000000000000000000000000000000000000000000000000000000000000000000000000000000000000000000000000000000000000000000000000000000000000000000000000000000000000000000000000000000013000000000000000000000000000000000000000000000000000000000000000000000000000000000000000000000000000000000000000000000000000000000000000000000000000000000000000000000000000000000000000000000000000000000000000000000000000000000000000000000000000000000000000000000000000000000000000000000000000000000000000000000000000000000000000000000000000000000000000000000000000000000000000000000000000000000000000000000000000000000000000000000000000000000000000000000000000000000000000000000000000000000000000000000000000000000000000000000000000000000000000000000000000000000000000000000000000000000000000000000000000000000000000000000000000000000000000000000000000000000000000000000000000000000000000000000000000000000000000000000000000000000000000000000000000000000000000000000000000000000000000000000000000000000000000000000000000000000000000000000000000000000000000000000000000000000000000000000000000000000000000000000000000000000000000000000000000000000000000000007c
#0771b:00000013
#07717:0023000000000000
#07716:23000000242400000000000000000000
#0771a:6424
#07718:00000000000000000023002300000000
#07715:0000000000230000
#0001a:00000012
#00017:0000000000000013
#00014:00000012
#0241a:0014001400001400
#02412:00141454
#02416:2424242428540054
#02414:00000000000000000054005400000000
#02418:00000000000000000000000000540054
#07812:2c
#07152:1c1c
#07154:00000014
#07158:00000014
#01056:64000054
#01052:0014
#0105a:0014
#01556:14
#01554:00180000
#01552:001c
#01652:14000000000000002525252500000000
#01659:25252525000000000000000000000000
#01657:0025002500250025000000000000000000000000000000000000000000000000
#01658:00550055005500550055005500550055000000000000000000000000000000000000000000000000000000000000000000000000000000000000000000000000
#0165a:0014
#01654:0000000000000000000000000000000000250025002500250000000000000000
#01653:00000000000000000000000000000000000000000000000000000000000000000065006500650065006500650065006500000000000000000000000000000000
#02656:53000014
#0265a:0054
#02652:00000014
#03156:53004434
#0315a:0044
#03152:00000034
#05156:00130000
#0515a:00120000
#05157:00000013
#05154:00000012
#0635a:0054
#06358:56160000
#0635b:0023000000000000
#06352:6623160000000000
#06355:0000000000240000
#06356:0034
#0045a:54
#00452:00340034
#00456:0024000000000000
#0085b:63
#00852:0000000000540000
#00856:0000000000541400
#0085a:00005414
#00952:00530000
#00957:0000002300000000
#01152:34000014
#0115a:00000014
#0175b:5353
#01752:00000018
#0185a:1454
#01852:6414
#01856:0024000000240000
#01952:6363
#01956:00000018
#02056:53
#02057:00630000
#02352:5653
#02359:00000025
#0335a:44004454
#03356:0000000054000024
#03352:0000000000240000
#03552:5353
#03558:46
#0355b:0000000000630000
#0365b:63
#03657:0053
#03656:0000000000630000
#04252:00636400
#04256:0000000000240000
#0425b:0000005300000000
#04756:64
#0475a:0024
#04754:00320032
#05452:00004c53
#00154:12120000
#0015a:12
#00356:0024002400000000
#00352:54540000
#0035a:00440044
#0055a:64640000
#00556:0024002400000000
#00552:00340034
#00652:0034000000005300
#0065a:44
#00756:0024000000000000
#0075a:54646400
#00755:0000002400000000
#01252:53000063
#0125b:0053
#01356:00140000
#0135a:00540000
#01452:5400001454000000
#01456:0014001400000000
#0145a:0014640000540000
#02156:64540000
#02252:55
#02256:0025000000000000
#02259:00650000
#02255:0000002500000000
#0255a:44444400
#02556:54545400
#02552:0024002400000000
#0275a:5414
#02756:0024002400000000
#02752:0000640014000036
#02758:00000046
#02956:64646400
#0295a:0024002400000000
#02952:34343400
#03057:63
#03056:0014
#03052:0014
#03954:0025002500250025000000000000000000000000000000000025002500250025
#03952:2500000000000000000000000000000000000000000000002500000000000000000000000000000000000000000000002500000000000000000000000000000000000000000000002500000000000000000000000000000000000000000000001c00000000000000000000000000000000000000000000000000000000000000000000000000000000000000000000000000000000000000000000000000000000000000000000000000000000000000000000000000000000000000000000000000000000000000000000000000000000000000000000000000000000000000000000000000000000000000000000000000000000000000000000000000000000000000000000000000000000000000000000000000000000000000000000001c2500000000000000000000000000000000000000000000250000000000000000000000000000000000000000000000250000000000000000000000000000000000000000000000250000000000000000000000000000000000000000000000
#03953:00650065006500650065006500650065000000000000000000000000000000000000000000000000000000000000000000650065006500650065006500650065
#03957:000000000000000000000000000000000000000000000000000000250000000000250000000000250000000000250000000000002500000000000000250000000000000025000000000000000000000000000000000000000000000000000000
#03958:000000000000000000000000000000000000000000000000000000000000000000000000000000000000000000000000000000550000000000550000000000550000000000550000000000550000000000550000000000550000000000550000000000005500000000000000550000000000000055000000000000005500000000000000550000000000000055000000000000000000000000000000000000000000000000000000000000000000000000000000000000000000000000000000
#03959:000000000000000000000000000000000000000000000000000000000000000000000000000000000000000000000000000000000000000000000000000000000000000000000000000000000000000000000000000000000000000000000000002500000000000000000000000000000000000000000000250000000000000000000000000000000000000000000000250000000000000000000000000000000000000000000000250000000000000000000000000000000000000000000000250000000000000000000000000000000000000000000000000000000000000025000000000000000000000000000000000000000000000000000000000000002500000000000000000000000000000000000000000000000000000000000000000000000000000000000000000000000000000000000000000000000000000000000000000000000000000000000000000000000000000000000000000000000000000000000000000000000000000000000000000000000000000000000000
#04156:5300000000630063
#04157:00005353
#04352:0053000000000000
#04357:0000006300000000
#04356:0053
#04452:0053000000000000
#04457:0000006300000000
#04556:0000000000443444
#04552:53
#04656:34
#0465a:54
#04652:00130000
#04655:00140000
#0485a:00420042
#04852:0024
#04856:005400000000000000000000000000000000000000000000000000000000000000000000000000000000000000000000000000000000000000000000000000000000000000000000000000000000000000000000000000000000000000000000000000000000000000000000000000000000000000000000000000000000000000000000000000000000000000000000000000000000000000000000000000000000000000000000000000000000000000000000000000000000000000000000000000000000000000000000000000000000000000000000000000000000000000000000000000000000000000000000000000000000000000000000000000000000000000000000000000000000000000000000000000000000000000000000000000000000000000000000000000000000000000000000000000000000000000000000000000000000000000000000000000000000000000000000000000000000000000000000000000000000000000000000000000000000000000000000000000000000000000000000000000000000000000000000000000000000000000000000000000000000000000000000000000000000000000000000000000000000000000000000000000000000000000000000000000000000000000000000000000000000000000000000000000000000000000000000000000000000000000000000000000000000000000000000000000000000000000000000000000000000000000000000000000000000000000000000000000000000000000000000000000000000000000000000000000000000000000000000000000000000000000000000000000000000000000000000000000000000000000000000000000000000000000000000000000000000000000000000000000000000000000000000000000000000000000000000000000000000000000000000000000000000000000000000000000000000000000000000000000000000000000000000000000000000000000000000000000000000000000000000000000000000000000000000000000000000000000000000000000000000000000000000000000000000000000000000000000000000000000000000000000000000000000000000000000000000000000000000000000000000000000000000000000000000000000000000000000000000000000000000000000000000000000000000000000000000000000000000000000000000000000000000000000000000000000000000000000000000000000000000000000000000000000000000000000000000000000000000000000000000000000000000000000000000000000000000000000000000000000000000000000000000000000000000000000000000000000000000000000000000000000000000000000000000000000000000000000000000000000000000000000000000000000000000000000000000000000000000000000000000000000000000000000000000000000000000000000000000000000000000000000000000000000000000000000000000000000000000000000000000000000000000000000000000000000000000000000000000000000000000000000000000000000000000000000000000000000000000000000000000000000000000000000000000000000000000000000000000000000000000000000000000000000000000000000000000000000000000000000000000000000000000000000000000000000000000000000000000000000000000000000000000000000000000000000000000000000000000000000000000000000000000000000000000000000000000000000000000000000000000000000000000000000000000000000000000000000000000000000000000000000000000000000000000000000000000000000000000000000000000000000000000000000000000000000000000000000000000000000000000000000000000000000000000000000000000000000000000000000000000000000000000000000000000000000000000000000000000000000000000000000000000000000000000000000000000000000000000000000000000000000000000000000000000000000000000000000000000000000000000000000000000000000000000000000000000000000000000000000000000000000000000000000000000000000000000000000000000000000000000000000000000000000000000000000000000000000000000000000000000000000000000000000000000000000000000000000000000000000000000000000000000000000000000000000000000000000000000000000000000000000000000000000000000000000000000000000000000000000000000000000000000000000000000000000000000000000000000000000000000000000000000000000000000000000000000000000000000000000000000000000000000000000000000000000000000000000000000000000000000000000000000000000000000000000000000000000000000000000000000000000000000000000000000000000000000000000000000000000000000000000000000000000000000000000000000000000000000
#04954:00320032
#0495a:0024
#04956:006400000000000000000000000000000000000000000000000000000000000000000000000000000000000000000000000000000000000000000000000000000000000000000000000000000000000000000000000000000000000000000000000000000000000000000000000000000000000000000000000000000000000000000000000000000000000000000000000000000000000000000000000000000000000000000000000000000000000000000000000000000000000000000000000000000000000000000000000000000000000000000000000000000000000000000000000000000000000000000000000000000000000000000000000000000000000000000000000000000000000000000000000000000000000000000000000000000000000000000000000000000000000000000000000000000000000000000000000000000000000000000000000000000000000000000000000000000000000000000000000000000000000000000000000000000000000000000000000000000000000000000000000000000000000000000000000000000000000000000000000000000000000000000000000000000000000000000000000000000000000000000000000000000000000000000000000000000000000000000000000000000000000000000000000000000000000000000000000000000000000000000000000000000000000000000000000000000000000000000000000000000000000000000000000000000000000000000000000000000000000000000000000000000000000000000000000000000000000000000000000000000000000000000000000000000000000000000000000000000000000000000000000000000000000000000000000000000000000000000000000000000000000000000000000000000000000000000000000000000000000000000000000000000000000000000000000000000000000000000000000000000000000000000000000000000000000000000000000000000000000000000000000000000000000000000000000000000000000000000000000000000000000000000000000000000000000000000000000000000000000000000000000000000000000000000000000000000000000000000000000000000000000000000000000000000000000000000000000000000000000000000000000000000000000000000000000000000000000000000000000000000000000000000000000000000000000000000000000000000000000000000000000000000000000000000000000000000000000000000000000000000000000000000000000000000000000000000000000000000000000000000000000000000000000000000000000000000000000000000000000000000000000000000000000000000000000000000000000000000000000000000000000000000000000000000000000000000000000000000000000000000000000000000000000000000000000000000000000000000000000000000000000000000000000000000000000000000000000000000000000000000000000000000000000000000000000000000000000000000000000000000000000000000000000000000000000000000000000000000000000000000000000000000000000000000000000000000000000000000000000000000000000000000000000000000000000000000000000000000000000000000000000000000000000000000000000000000000000000000000000000000000000000000000000000000000000000000000000000000000000000000000000000000000000000000000000000000000000000000000000000000000000000000000000000000000000000000000000000000000000000000000000000000000000000000000000000000000000000000000000000000000000000000000000000000000000000000000000000000000000000000000000000000000000000000000000000000000000000000000000000000000000000000000000000000000000000000000000000000000000000000000000000000000000000000000000000000000000000000000000000000000000000000000000000000000000000000000000000000000000000000000000000000000000000000000000000000000000000000000000000000000000000000000000000000000000000000000000000000000000000000000000000000000000000000000000000000000000000000000000000000000000000000000000000000000000000000000000000000000000000000000000000000000000000000000000000000000000000000000000000000000000000000000000000000000000000000000000000000000000000000000000000000000000000000000000000000000000000000000000000000000000000000000000000000000000000000000000000000000000000000000000000000000000000000000000000000000000000000000000000000000000000000000000000000000000000000000000000000000000000000000000000000000000000000000000000000000000000000000000000000000000000000000000000000000000000000000000000000000
#0505a:00420042
#05052:0024
#05056:005400000000000000000000000000000000000000000000000000000000000000000000000000000000000000000000000000000000000000000000000000000000000000000000000000000000000000000000000000000000000000000000000000000000000000000000000000000000000000000000000000000000000000000000000000000000000000000000000000000000000000000000000000000000000000000000000000000000000000000000000000000000000000000000000000000000000000000000000000000000000000000000000000000000000000000000000000000000000000000000000000000000000000000000000000000000000000000000000000000000000000000000000000000000000000000000000000000000000000000000000000000000000000000000000000000000000000000000000000000000000000000000000000000000000000000000000000000000000000000000000000000000000000000000000000000000000000000000000000000000000000000000000000000000000000000000000000000000000000000000000000000000000000000000000000000000000000000000000000000000000000000000000000000000000000000000000000000000000000000000000000000000000000000000000000000000000000000000000000000000000000000000000000000000000000000000000000000000000000000000000000000000000000000000000000000000000000000000000000000000000000000000000000000000000000000000000000000000000000000000000000000000000000000000000000000000000000000000000000000000000000000000000000000000000000000000000000000000000000000000000000000000000000000000000000000000000000000000000000000000000000000000000000000000000000000000000000000000000000000000000000000000000000000000000000000000000000000000000000000000000000000000000000000000000000000000000000000000000000000000000000000000000000000000000000000000000000000000000000000000000000000000000000000000000000000000000000000000000000000000000000000000000000000000000000000000000000000000000000000000000000000000000000000000000000000000000000000000000000000000000000000000000000000000000000000000000000000000000000000000000000000000000000000000000000000000000000000000000000000000000000000000000000000000000000000000000000000000000000000000000000000000000000000000000000000000000000000000000000000000000000000000000000000000000000000000000000000000000000000000000000000000000000000000000000000000000000000000000000000000000000000000000000000000000000000000000000000000000000000000000000000000000000000000000000000000000000000000000000000000000000000000000000000000000000000000000000000000000000000000000000000000000000000000000000000000000000000000000000000000000000000000000000000000000000000000000000000000000000000000000000000000000000000000000000000000000000000000000000000000000000000000000000000000000000000000000000000000000000000000000000000000000000000000000000000000000000000000000000000000000000000000000000000000000000000000000000000000000000000000000000000000000000000000000000000000000000000000000000000000000000000000000000000000000000000000000000000000000000000000000000000000000000000000000000000000000000000000000000000000000000000000000000000000000000000000000000000000000000000000000000000000000000000000000000000000000000000000000000000000000000000000000000000000000000000000000000000000000000000000000000000000000000000000000000000000000000000000000000000000000000000000000000000000000000000000000000000000000000000000000000000000000000000000000000000000000000000000000000000000000000000000000000000000000000000000000000000000000000000000000000000000000000000000000000000000000000000000000000000000000000000000000000000000000000000000000000000000000000000000000000000000000000000000000000000000000000000000000000000000000000000000000000000000000000000000000000000000000000000000000000000000000000000000000000000000000000000000000000000000000000000000000000000000000000000000000000000000000000000000000000000000000000000000000000000000000000000000000000000000000000000000000000000000000000000000000000000000000000000000000000000000000000000000000000000000000000000000000000000000
#05254:00130000
#05257:6252
#05259:00120013
#05255:00000012
#05354:12
#0535a:1214
#05356:00000054
#05352:0014
#05657:63
#05656:00006414
#05652:00006434
#0565a:0000000000240000
#05752:64000036
#05756:0024002400000000
#0575a:00544400
#05758:0000000000000046
#06056:5314
#0605a:0014
#05554:00340000
#05552:0034
#0555a:54545400
#05555:0000002400000000
#05556:3424000000000000
#05856:00145414
#0585a:00005444
#05852:0000000000240000
#05952:64646400
#05957:0000002400000000
#05956:4424000000000000
#05958:00440000
#0595a:0044
#06155:54
#0615a:0024000000005400
#06152:0054
#06456:646400000000000000000000000000000000000000000000000000000000000000000000000000000000000000000000000000000000000000000000000000000000000000000000000000000000000000000000000000000000000000000000000000000000000000000000000000000000000000000000000000000000000000000000000000000000000000000000000000000000000000000000000000000000000000000000000000000000000000000000000000000000000000000000000000000000000000000000000000000000000000000000000000000000000000000000000000000000000000000000000000000000000000000000000000000000000000000000000000000000000000000000000000000000000000000000000000000000000000000000000000000000000000000000000000000000000000000000000000000000000000000000000000000000000000000000000000000000000000000000000000000000000000000000000000000000000000000000000000000000000000000000000000000000000000000000000000000000000000000000000000000000000000000000000000000000000000000000000000000000000000000000000000000000000000000000000000000000000000000000000000000000000000000000000000000000000000000000000000000000000000000000000000000000000000000000000000000000000000000000000000000000000000000000000000000000000000000000000000000000000000000000000000000000000000000000000000000000000000000000000000000000000000000000000000000000000000000000000000000000000000000000000000000000000000000000000000000000000000000000000000000000000000000000000000000000000000000000000000000000000000000000000000000000000000000000000000000000000000000000000000000000000000000000000000000000000000000000000000000000000000000000000000000000000000000000000000000000000000000000000000000000000000000000000000000000000000000000000000000000000000000000000000000000000000000000000000000000000000000000000000000000000000000000000000000000000000000000000000000000000000000000000000000000000000000000000000000000000000000000000000000000000000000000000000000000000000000000000000000000000000000000000000000000000000000000000000000000000000000000000000000000000000000000000000000000000000000000000000000000000000000000000000000000000000000000000000000000000000000000000000000000000000000000000000000000000000000000000000000000000000000000000000000000000000000000000000000000000000000000000000000000000000000000000000000000000000000000000000000000000000000000000000000000000000000000000000000000000000000000000000000000000000000000000000000000000000000000000000000000000000000000000000000000000000000000000000000000000000000000000000000000000000000000000000000000000000000000000000000000000000000000000000000000000000000000000000000000000000000000000000000000000000000000000000000000000000000000000000000000000000000000000000000000000000000000000000000000000000000000000000000000000000000000000000000000000000000000000000000000000000000000000000000000000000000000000000000000000000000000000000000000000000000000000000000000000000000000000000000000000000000000000000000000000000000000000000000000000000000000000000000000000000000000000000000000000000000000000000000000000000000000000000000000000000000000000000000000000000000000000000000000000000000000000000000000000000000000000000000000000000000000000000000000000000000000000000000000000000000000000000000000000000000000000000000000000000000000000000000000000000000000000000000000000000000000000000000000000000000000000000000000000000000000000000000000000000000000000000000000000000000000000000000000000000000000000000000000000000000000000000000000000000000000000000000000000000000000000000000000000000000000000000000000000000000000000000000000000000000000000000000000000000000000000000000000000000000000000000000000000000000000000000000000000000000000000000000000000000000000000000000000000000000000000000000000000000000000000000000000000000000000000000000000000000000000000000000000000000000000000000000000000000000000000000000000000000000000000000000000000000000000000000000000000000000000000000000000000000000000
#06452:0000002400000000000000000000000066000000000000003600000000000000
#06458:0000000000261600
#0645a:0000002400000000000000000000000000000000000000000000000000000000
#0655a:5400000000640000
#06552:00545454
#06556:00000000000000000024002400240000
#06758:5600002616000000
#06752:0026660036000000
#06852:5314
#0685a:0014
#06956:54
#06952:0000000054240024
#0695a:0000000054240024
#06954:00000054
#06958:00000054
#0755a:54
#07556:0024340000004400
#07452:54540000
#07456:0024442400004400
#0775a:44
#07752:0034001c00005300
#0775b:00000063
#07852:1c
#0005a:00000052
#00057:0000000000000023
#02856:00146414
#02852:00006434
#0285a:0000000000240000
#06652:0000140036260000
#0665a:00140000
#06658:0056
#02456:0018
#04052:2525251c00000000001c0000
#04054:002500250025000000000000000000000000000000000000
#04053:006500650065006500650065000000000000000000000000000000000000000000000000000000000000000000000000
#04057:000000000000000000000000000000000000000000000000000000250000000000250000000000250000000000250000000000002500000000000000250000000000000025000000000000000000000000000000000000000000000000000000
#04058:000000000000000000000000000000000000000000000000000000000000000000000000000000000000000000000000000000550000000000550000000000550000000000550000000000550000000000550000000000550000000000550000000000005500000000000000550000000000000055000000000000005500000000000000550000000000000055000000000000000000000000000000000000000000000000000000000000000000000000000000000000000000000000000000
#04059:000000000000000000000000000000000000000000000000000000000000000000000000000000000000000000000000000000000000000000000000000000000000000000000000000000000000000000000000000000000000000000000000002500000000000000000000000000000000000000000000250000000000000000000000000000000000000000000000250000000000000000000000000000000000000000000000250000000000000000000000000000000000000000000000250000000000000000000000000000000000000000000000000000000000000025000000000000000000000000000000000000000000000000000000000000002500000000000000000000000000000000000000000000000000000000000000000000000000000000000000000000000000000000000000000000000000000000000000000000000000000000000000000000000000000000000000000000000000000000000000000000000000000000000000000000000000000000000000
#0765a:64640000
#07656:0024342400003400
#07052:241c0000
#0705a:24
#00254:62
#00256:0023000000000000
#03452:00000016
#03852:00000036
#03858:00000046
#0003a0:00000012
#000370:0000000000000053
#0013a0:22
#002340:12220000
#002360:0053000000000000
#003320:14342400
#003360:0054005400000000
#0043a0:14240000
#004360:0054000000000000
#0053a0:14342400
#005360:0054005400000000
#006320:00000013
#007360:24
#0073a1:14343400
#007361:0054000000002400
#007351:0000005400000000
#0083b1:13
#008381:00000023000000000000000000000000
#0083a1:00001424
#008361:0000000000340000
#008320:0000000000140000
#008360:00000024
#009320:00132300
#009370:0000005300000000
#010360:14
#010320:00000024000000000000000000000000
#010360:00000014
#0103a0:0000000000000000000000000000000000000000000000000000545454545454
#010390:00000000000000000000000000000000000000000000000000000000000000000000000000000000000000000000000000000000005500000055000000550000
#0103b0:00000000000000000000000000000000000000000000000000000000000000000000000000000000000000000000000000000000000000530000005300000053
#0113a0:5454545454545454240000000000000000000000000000000000000000000000
#011390:00550000005500000055000000550000000000000000000000000000000000000000000000000000000000000000000000000000000000000000000000000000
#0113b0:00000053000000530000005300000053000000000000000000000000000000000000000000000000000000000000000000000000000000000000000000000000
#011320:0000000000000000000000000000000000140000000000002400000000000000
#0113a1:0000000000000000000000000000000000140000000000002400000000000000
#012321:13
#012371:0024
#0123b0:0013
#012350:00000024
#012321:00000013
#013361:24
#0133a1:00140000
#013361:00000000000000240000000000000000
#014321:14
#014361:00542400000000000000000000000000
#0143a1:00140000
#014361:00000000005424000000000000000000
#014321:0014
#014361:00000000000000000054240000000000
#0143a0:0000000000140000
#014360:00000000000000000000005424000000
#016390:15555555250000000000000000000000
#016380:00550055005500550055005500550055000000000000000000000000000000000000000000000000000000000000000000000000000000000000000000000000
#016370:0055005500550055000000000000000000000000000000000000000000000000
#016320:00000000000000001555555525000000
#016330:00000000000000000000000000000000000000000000000000000000000000000055005500550055005500550055005500000000000000000000000000000000
#016340:0000000000000000000000000000000000550055005500550000000000000000
#0173b0:13
#017380:00000023000000000000000000000000
#0173b0:0013
#017360:00000000000000000000002400000000
#018320:14240000
#018360:0054000000000000
#0183a0:00001424
#018360:0000000000540000
#019320:13
#019350:00000023000000000000000000000000
#019320:0013
#019360:00000000000000000000002400000000
#020360:13
#020320:00530033230000000000000000000000
#020371:00130000
#0203b1:00000000005300332300000000000000
#020360:0000000013230000
#0203b1:0000000000132300
#020320:0000000000001323
#021360:14
#0213a0:00540034240000000000000000000000
#021361:00140000
#021321:00000000005400342400000000000000
#021360:0000000014240000
#021321:0000000000142400
#0213a0:0000000000001424
#022320:15250000
#022360:0055000000000000
#022391:00152500
#022351:0000005500000000
#023321:1600003333000000
#023391:00000035
#024321:24
#025361:14343400
#025321:0054005400002400
#026361:13
#026321:00000023000000000000000000000000
#0263a1:0014
#026321:00000024
#026360:00001424
#0273a0:14240000
#027360:0054000000000000
#027321:00142400
#027361:0000005400000000
#028361:0014000000000000240000000000000000000000000000000000000000000000
#028321:00001424
#0283a1:0000000000540000
#028360:00001424
#029360:14343400
#0293a0:0054005400002400
#030370:13
#0303b0:00000023000000000000000000000000
#030320:0000000000001323
#0303b1:0000000000000013
#0313b1:23
#031360:13
#031320:00230000
#033360:00001424
#033320:0000000000540000
#0333a1:00000014
#033361:0000000000000054
#0343a1:24
#035321:13
#035371:00000023000000000000000000000000
#035321:0013
#035361:0000000000230000
#0353b0:0000000000130000
#035370:00000023
#0363b0:13
#036360:00000023000000000000000000000000
#036370:0013
#0363b0:0000000000230000
#036361:0000000000130000
#036321:00000023
#039321:150000000000000000000000000000000000000000000000550000000000000000000000000000000000000000000000550000000000000000000000000000000000000000000000550000000000000000000000000000000000000000000025000000000000000000000000000000000000000000000000000000000000000000000000000000000000000000000000000000000000000000000000000000000000000000000000000000000000000000000000000000000000000000000000000000000000000000000000000000000000000000000000000000000000000000000000000000000000000000000000000000000000000000000000000000000000000000000000000000000000000000000000000000000000000000000000000000000000000000000000000000000000000000000000000000000000000000000000000000000000000000000000000000000000000000000000000000000000000000000000000000000000000000000000000000000000000000000000
#039331:00550055005500550055005500550055000000000000000000000000000000000000000000000000000000000000000000000000000000000000000000000000
#039341:0055005500550055000000000000000000000000000000000000000000000000
#039391:000000000000000000000000000000000000000000000000000000000000000000000000000000000000000000000000000000000000000000000000000000000000000000000000000000000000000000000000000000000000000000000000001500000000000000000000000000000000000000000000550000000000000000000000000000000000000000000000550000000000000000000000000000000000000000000000550000000000000000000000000000000000000000000000550000000000000000000000000000000000000000000000000000000000000055000000000000000000000000000000000000000000000000000000000000005500000000000000000000000000000000000000000000000000000000000025000000000000000000000000000000000000000000000000000000000000000000000000000000000000000000000000000000000000000000000000000000000000000000000000000000000000000000000000000000000000000000000000
#039381:000000000000000000000000000000000000000000000000000000000000000000000000000000000000000000000000000000550000000000550000000000550000000000550000000000550000000000550000000000550000000000550000000000005500000000000000550000000000000055000000000000005500000000000000550000000000000055000000000000000000000000000000000000000000000000000000000000000000000000000000000000000000000000000000
#039371:000000000000000000000000000000000000000000000000000000550000000000550000000000550000000000550000000000005500000000000000550000000000000055000000000000000000000000000000000000000000000000000000
#039321:000000000000000000000000000000000000000000000000000000000000000000000000000000000000000000000000000000000000000000000000000000000000000000000000000000000000000000000000000000000000000000000000000000000000000000000000000000000000000000000000000000000000000000000000000000000000000000000000000000000000000000000000000000000000000000000000000000000000000000000000000000000000000000000000000000000000000000000000000000000000000000000000000000000000000000000000000000000000000000000000000000000000000000000000000000000000000000000000000000000000000000000000000000000000000000000000001500000000000000000000000000000000000000000000550000000000000000000000000000000000000000000000550000000000000000000000000000000000000000000000550000000000000000000000000000000000000000000000
#039331:00000000000000000000000000000000000000000000000000000000000000000000000000000000000000000000000000550055005500550055005500550055
#039341:0000000000000000000000000000000000000000000000000055005500550055
#040321:550000000000000000000000000000000000000000000000000000000000000055000000000000000000000000000000000000000000000000000000000000005500000000000000000000000000000000000000000000000000000000000025000000000000000000000000000000000000000000000000000000000000000000000000000000000000000000000000000000000000000000000000000000000000000000000000000000000000000000000000000000000000000000000000000000000000000000000000000000000000000000000000000000000000000000000000000000000000000000000000000000000000000000000000000000000000000000000000000000000000000000000000000000000000000000000000000000000000000000000000000000000000000000000000000000000000000000000000000000000000000000000000000000000000000000000000000000000000000000000000000000000000000000000000000000000000000000000000
#040331:005500550055005500550055000000000000000000000000000000000000000000000000000000000000000000000000
#040341:005500550055000000000000000000000000000000000000
#040391:000000000000000000000000000000000000000000000000000000000000000000000000000000000000000000000000000000000000000000000000000000000000000000000000000000000000000000000000000000000000000000000000000000000000000000000000000000000000000000000000000000000000000000000000000000000000000000000000000000000000000000000000000000000000000000000000000000000000000000000000000000000000000000000000000000000000000000000000000000000000000000000000000000000000000000000000000000000000000000000000000000000000000000000000000000000000000000000000000000000000000000000000000000000000000000000000000000000000000000000000000000000000000000000000000000000000000000000000000000000000000000000000000000000000000000000000000000000000000000000000000000000000000000000000000000000000000000000000000000000000000000000000000000000000000000000000000000000000000000000000000000000000000000000000000000000000000000000000000000000000000000000000000000000000000000000000000000000000000000000000000000000015000000000000000000000000000000000000000000000000000000000000000000000000000000000000000000000000000000000000000000000000000000000000000000000000000000000000000000000000000000000000000000000000000000000000000000000000000000000000550000000000000000000000000000000000000000000000000000000000000000000000000000000000000000000000000000000000000000000000000000000000000000000000000000000000000000000000000000000000000000000000000000000000000000000000000000000000000000000000550000000000000000000000000000000000000000000000000000000000000000000000000000000000000000000000000000000000000000000000000000000000000000000000000000000000000000000000000000000000000000000000000000000000000000000000000000000000000000000000550000000000000000000000000000000000000000000000000000000000000000000000000000000000000000000000000000000000000000000000000000000000000000000000000000000000000000000000000000000000000000000000000000000000000000000000000000000000000000000000550000000000000000000000000000000000000000000000000000000000000000000000000000000000000000000000000000000000000000000000000000000000000000000000000000000000000000000000000000000000000000000000000000000000000000000000000000000000000000000000000000000000000000000000000000000000000000000000000000000000000000000000000000005500000000000000000000000000000000000000000000000000000000000000000000000000000000000000000000000000000000000000000000000000000000000000000000000000000000000000000000000000000000000000000000000000000000000000000000000000000000000000000000000000000000000000000000000000000000000000000000000000000000000000000000000000000055000000000000000000000000000000000000000000000000000000000000000000000000000000000000000000000000000000000000000000000000000000000000000000000000000000000000000000000000000000000000000000000000000000000000000000000000000000000000000000000000000000000000000000000000000000000000000000000000000000000000000000000000000055000000000000000000000000000000000000000000000000000000000000000000000000000000000000000000000000000000000000000000000000000000000000000000000000000000000000000000000000000000000000000000000000000000000000000000000000000000000000000000000000000000000000000000000000000000000000000000000000000000000000000000000000000000000000000000000000000000000000000000000000000000000000000000000000000000000000000000000000000000000000000000000000000000000000000000000000000000000000000000000000000000000000000000000000000000000000000000000000000000000000000000000000000000000000000000000000000000000000000000000000000000000000000000000000000000000000000000000000000000000000000000000000000000000000000000000000000000000000000000000000000000000000000000000000000000000000000000000000000000000000000000000000000000000000000000000000000000000000000000000000000000000000000000000000000000000000000000000000000000000000000000000000000000000000000000000000000000000000000000000000
#040381:000000000000000000000000000000000000000000000000000000000000000000000000000000000000000000000000000000550000000000550000000000550000000000550000000000550000000000550000000000550000000000550000000000005500000000000000550000000000000055000000000000005500000000000000550000000000000055000000000000000000000000000000000000000000000000000000000000000000000000000000000000000000000000000000
#040371:000000000000000000000000000000000000000000000000000000550000000000550000000000550000000000550000000000005500000000000000550000000000000055000000000000000000000000000000000000000000000000000000
#040321:0000002c
#041361:13
#0413b1:00230000
#041320:0000132300000000
#041370:0013
#041320:0000000000230000
#041361:0000000000130000
#0413b1:00000023
#041370:00000013
#041320:0000000000000023
#041361:0000000000000013
#0423b1:23
#042321:00130000
#042361:0000002400000000
#0423b0:0000001300000000
#042360:0024
#042321:00001424
#042361:0000000000540000
#0423a0:0000000000001424
#043320:0013000000000000
#043370:00230000
#0433b1:0000132300000000
#043370:0000001300000000
#043320:0023
#043361:0013
#0433b1:0000000000230000
#044321:0013000000000000
#044371:00230000
#0443b0:0000132300000000
#044371:0000001300000000
#044321:0023
#0443a0:0014
#044360:0000000000240000
#044321:0000000000140000
#044361:00000024
#0443a0:00000014
#044360:0000000000000024
#045320:13
#045360:00230000
#0453a0:0014
#045360:00000000000000000054240000000000
#045321:0000000000140000
#045361:00000000000000000000005424000000
#0453a0:00000014
#045360:00000000000000000000000000542400
#045321:0000000000000014
#045361:00000000000000000000000000000054
#046361:24
#0463a0:14
#046350:00240000
#047360:140000000000000000000000000000000000000000000000000000000000000000000000000000000000000000000000000000000000000000000000000000000000000000000000000000000000000000000000000000000000000000000000000000000000000000000000000000000000000000000000000000000000000000000000000000000000000000000000000000000000000000000000000000000000000000000000000000000000000000000000000000000000000000000000000000000000000000000000000000000000000000000000000000000000000000000000000000000000000000000000000000000000000000000000000000000000000000000000000000000000000000000000000000000000000000000000000000000000000000000000000000000000000000000000000000000000000000000000000000000000000000000000000000000000000000000000000000000000000000000000000000000000000000000000000000000000000000000000000000000000000000000000000000000000000000000000000000000000000000000000000000000000000000000000000000000000000000000000000000000000000000000000000000000000000000000000000000000000000000000000000000000000000000000000000000000000000000000000000000000000000000000000000000000000000000000000000000000000000000000000000000000000000000000000000000000000000000000000000000000000000000000000000000000000000000000000000000000000000000000000000000000000000000000000000000000000000000000000000000000000000000000000000000000000000000000000000000000000000000000000000000000000000000000000000000000000000000000000000000000000000000000000000000000000000000000000000000000000000000000000000000000000000000000000000000000000000000000000000000000000000000000000000000000000000000000000000000000000000000000000000000000000000000000000000000000000000000000000000000000000000000000000000000000000000000000000000000000000000000000000000000000000000000000000000000000000000000000000000000000000000000000000000000000000000000000000000000000000000000000000000000000000000000000000000000000000000000000000000000000000000000000000000000000000000000000000000000000000000000000000000000000000000000000000000000000000000000000000000000000000000000000000000000000000000000000000000000000000000000000000000000000000000000000000000000000000000000000000000000000000000000000000000000000000000000000000000000000000000000000000000000000000000000000000000000000000000000000000000000000000000000000000000000000000000000000000000000000000000000000000000000000000000000000000000000000000000000000000000000000000000000000000000000000000000000000000000000000000000000000000000000000000000000000000000000000000000000000000000000000000000000000000000000000000000000000000000000000000000000000000000000000000000000000000000000000000000000000000000000000000000000000000000000000000000000000000000000000000000000000000000000000000000000000000000000000000000000000000000000000000000000000000000000000000000000000000000000000000000000000000000000000000000000000000000000000000000000000000000000000000000000000000000000000000000000000000000000000000000000000000000000000000000000000000000000000000000000000000000000000000000000000000000000000000000000000000000000000000000000000000000000000000000000000000000000000000000000000000000000000000000000000000000000000000000000000000000000000000000000000000000000000000000000000000000000000000000000000000000000000000000000000000000000000000000000000000000000000000000000000000000000000000000000000000000000000000000000000000000000000000000000000000000000000000000000000000000000000000000000000000000000000000000000000000000000000000000000000000000000000000000000000000000000000000000000000000000000000000000000000000000000000000000000000000000000000000000000000000000000000000000000000000000000000000000000000000000000000000000000000000000000000000000000000000000000000000000000000000000000000000000000000000000000000000000000000000000000000000000000000000000000000000000000000000000000000000000000000000000000000000000000000000000000000000000000000000000000000000000000000024
#0473a0:0054
#048360:001400000000000000000000000000000000000000000000000000000000000000000000000000000000000000000000000000000000000000000000000000000000000000000000000000000000000000000000000000000000000000000000000000000000000000000000000000000000000000000000000000000000000000000000000000000000000000000000000000000000000000000000000000000000000000000000000000000000000000000000000000000000000000000000000000000000000000000000000000000000000000000000000000000000000000000000000000000000000000000000000000000000000000000000000000000000000000000000000000000000000000000000000000000000000000000000000000000000000000000000000000000000000000000000000000000000000000000000000000000000000000000000000000000000000000000000000000000000000000000000000000000000000000000000000000000000000000000000000000000000000000000000000000000000000000000000000000000000000000000000000000000000000000000000000000000000000000000000000000000000000000000000000000000000000000000000000000000000000000000000000000000000000000000000000000000000000000000000000000000000000000000000000000000000000000000000000000000000000000000000000000000000000000000000000000000000000000000000000000000000000000000000000000000000000000000000000000000000000000000000000000000000000000000000000000000000000000000000000000000000000000000000000000000000000000000000000000000000000000000000000000000000000000000000000000000000000000000000000000000000000000000000000000000000000000000000000000000000000000000000000000000000000000000000000000000000000000000000000000000000000000000000000000000000000000000000000000000000000000000000000000000000000000000000000000000000000000000000000000000000000000000000000000000000000000000000000000000000000000000000000000000000000000000000000000000000000000000000000000000000000000000000000000000000000000000000000000000000000000000000000000000000000000000000000000000000000000000000000000000000000000000000000000000000000000000000000000000000000000000000000000000000000000000000000000000000000000000000000000000000000000000000000000000000000000000000000000000000000000000000000000000000000000000000000000000000000000000000000000000000000000000000000000000000000000000000000000000000000000000000000000000000000000000000000000000000000000000000000000000000000000000000000000000000000000000000000000000000000000000000000000000000000000000000000000000000000000000000000000000000000000000000000000000000000000000000000000000000000000000000000000000000000000000000000000000000000000000000000000000000000000000000000000000000000000000000000000000000000000000000000000000000000000000000000000000000000000000000000000000000000000000000000000000000000000000000000000000000000000000000000000000000000000000000000000000000000000000000000000000000000000000000000000000000000000000000000000000000000000000000000000000000000000000000000000000000000000000000000000000000000000000000000000000000000000000000000000000000000000000000000000000000000000000000000000000000000000000000000000000000000000000000000000000000000000000000000000000000000000000000000000000000000000000000000000000000000000000000000000000000000000000000000000000000000000000000000000000000000000000000000000000000000000000000000000000000000000000000000000000000000000000000000000000000000000000000000000000000000000000000000000000000000000000000000000000000000000000000000000000000000000000000000000000000000000000000000000000000000000000000000000000000000000000000000000000000000000000000000000000000000000000000000000000000000000000000000000000000000000000000000000000000000000000000000000000000000000000000000000000000000000000000000000000000000000000000000000000000000000000000000000000000000000000000000000000000000000000000000000000000000000000000000000000000000000000000000000000000000000000000000000000000000000000000000000000000000000000000000000000000000000000000000000000000000000000000000000000000000000000024
#048320:0054
#049360:001400000000000000000000000000000000000000000000000000000000000000000000000000000000000000000000000000000000000000000000000000000000000000000000000000000000000000000000000000000000000000000000000000000000000000000000000000000000000000000000000000000000000000000000000000000000000000000000000000000000000000000000000000000000000000000000000000000000000000000000000000000000000000000000000000000000000000000000000000000000000000000000000000000000000000000000000000000000000000000000000000000000000000000000000000000000000000000000000000000000000000000000000000000000000000000000000000000000000000000000000000000000000000000000000000000000000000000000000000000000000000000000000000000000000000000000000000000000000000000000000000000000000000000000000000000000000000000000000000000000000000000000000000000000000000000000000000000000000000000000000000000000000000000000000000000000000000000000000000000000000000000000000000000000000000000000000000000000000000000000000000000000000000000000000000000000000000000000000000000000000000000000000000000000000000000000000000000000000000000000000000000000000000000000000000000000000000000000000000000000000000000000000000000000000000000000000000000000000000000000000000000000000000000000000000000000000000000000000000000000000000000000000000000000000000000000000000000000000000000000000000000000000000000000000000000000000000000000000000000000000000000000000000000000000000000000000000000000000000000000000000000000000000000000000000000000000000000000000000000000000000000000000000000000000000000000000000000000000000000000000000000000000000000000000000000000000000000000000000000000000000000000000000000000000000000000000000000000000000000000000000000000000000000000000000000000000000000000000000000000000000000000000000000000000000000000000000000000000000000000000000000000000000000000000000000000000000000000000000000000000000000000000000000000000000000000000000000000000000000000000000000000000000000000000000000000000000000000000000000000000000000000000000000000000000000000000000000000000000000000000000000000000000000000000000000000000000000000000000000000000000000000000000000000000000000000000000000000000000000000000000000000000000000000000000000000000000000000000000000000000000000000000000000000000000000000000000000000000000000000000000000000000000000000000000000000000000000000000000000000000000000000000000000000000000000000000000000000000000000000000000000000000000000000000000000000000000000000000000000000000000000000000000000000000000000000000000000000000000000000000000000000000000000000000000000000000000000000000000000000000000000000000000000000000000000000000000000000000000000000000000000000000000000000000000000000000000000000000000000000000000000000000000000000000000000000000000000000000000000000000000000000000000000000000000000000000000000000000000000000000000000000000000000000000000000000000000000000000000000000000000000000000000000000000000000000000000000000000000000000000000000000000000000000000000000000000000000000000000000000000000000000000000000000000000000000000000000000000000000000000000000000000000000000000000000000000000000000000000000000000000000000000000000000000000000000000000000000000000000000000000000000000000000000000000000000000000000000000000000000000000000000000000000000000000000000000000000000000000000000000000000000000000000000000000000000000000000000000000000000000000000000000000000000000000000000000000000000000000000000000000000000000000000000000000000000000000000000000000000000000000000000000000000000000000000000000000000000000000000000000000000000000000000000000000000000000000000000000000000000000000000000000000000000000000000000000000000000000000000000000000000000000000000000000000000000000000000000000000000000000000000000000000000000000000000000000000000000000000000000000000000000000000000000000000000000000000000000000000000024
#0493a0:0054
#050360:001400000000000000000000000000000000000000000000000000000000000000000000000000000000000000000000000000000000000000000000000000000000000000000000000000000000000000000000000000000000000000000000000000000000000000000000000000000000000000000000000000000000000000000000000000000000000000000000000000000000000000000000000000000000000000000000000000000000000000000000000000000000000000000000000000000000000000000000000000000000000000000000000000000000000000000000000000000000000000000000000000000000000000000000000000000000000000000000000000000000000000000000000000000000000000000000000000000000000000000000000000000000000000000000000000000000000000000000000000000000000000000000000000000000000000000000000000000000000000000000000000000000000000000000000000000000000000000000000000000000000000000000000000000000000000000000000000000000000000000000000000000000000000000000000000000000000000000000000000000000000000000000000000000000000000000000000000000000000000000000000000000000000000000000000000000000000000000000000000000000000000000000000000000000000000000000000000000000000000000000000000000000000000000000000000000000000000000000000000000000000000000000000000000000000000000000000000000000000000000000000000000000000000000000000000000000000000000000000000000000000000000000000000000000000000000000000000000000000000000000000000000000000000000000000000000000000000000000000000000000000000000000000000000000000000000000000000000000000000000000000000000000000000000000000000000000000000000000000000000000000000000000000000000000000000000000000000000000000000000000000000000000000000000000000000000000000000000000000000000000000000000000000000000000000000000000000000000000000000000000000000000000000000000000000000000000000000000000000000000000000000000000000000000000000000000000000000000000000000000000000000000000000000000000000000000000000000000000000000000000000000000000000000000000000000000000000000000000000000000000000000000000000000000000000000000000000000000000000000000000000000000000000000000000000000000000000000000000000000000000000000000000000000000000000000000000000000000000000000000000000000000000000000000000000000000000000000000000000000000000000000000000000000000000000000000000000000000000000000000000000000000000000000000000000000000000000000000000000000000000000000000000000000000000000000000000000000000000000000000000000000000000000000000000000000000000000000000000000000000000000000000000000000000000000000000000000000000000000000000000000000000000000000000000000000000000000000000000000000000000000000000000000000000000000000000000000000000000000000000000000000000000000000000000000000000000000000000000000000000000000000000000000000000000000000000000000000000000000000000000000000000000000000000000000000000000000000000000000000000000000000000000000000000000000000000000000000000000000000000000000000000000000000000000000000000000000000000000000000000000000000000000000000000000000000000000000000000000000000000000000000000000000000000000000000000000000000000000000000000000000000000000000000000000000000000000000000000000000000000000000000000000000000000000000000000000000000000000000000000000000000000000000000000000000000000000000000000000000000000000000000000000000000000000000000000000000000000000000000000000000000000000000000000000000000000000000000000000000000000000000000000000000000000000000000000000000000000000000000000000000000000000000000000000000000000000000000000000000000000000000000000000000000000000000000000000000000000000000000000000000000000000000000000000000000000000000000000000000000000000000000000000000000000000000000000000000000000000000000000000000000000000000000000000000000000000000000000000000000000000000000000000000000000000000000000000000000000000000000000000000000000000000000000000000000000000000000000000000000000000000000000000000000000000000000000000000000000000000000000000
#050320:0054
#051360:24
#0513a1:12220000
#051341:00001222
#052371:12
#052391:00220000
#052371:0012
#052351:00000022
#053361:00000014
#054321:24
#054321:00000013
#055361:24
#0553a0:14343400
#055360:0054000000000000
#055350:0000005400002400
#056370:13
#0563b0:00000023000000000000000000000000
#056320:00001424
#0563a0:0000000000540000
#056361:00001424
#057321:14240000
#057361:0054000000000000
#0573a0:00142400
#057360:0000005400000000
#058360:0014000000000000240000000000000000000000000000000000000000000000
#0583a0:00001424
#058320:0000000000540000
#058361:00001424
#059321:14343400
#059361:0054000000000000
#059371:0000005400002400
#060361:13
#060321:00000023000000000000000000000000
#060371:0000000000001323
#060320:0000000000000013
#061320:23
#061351:14
#0613a1:0054000000000000
#061361:00240000
#061320:0000142400000000
#0613a1:0000001424000000
#061320:0014
#061360:00000034
#062360:24
#0613a1:00000014
#062321:24
#063381:16260000
#0633b1:0053000000000000
#063320:1653260000000000
#0633a0:00001424
#063350:0000000000540000
#063361:00000014
#063321:0000000000000000000000000000000000000000000000000054000024000000
#064361:14000024000000000000000000000000
#0643a1:0000005400000000000000000000000000000000000000000000000000000000
#064360:001400000000000000000000000000000000000000000000000000000000000000000000000000000000000000000000000000000000000000000000000000000000000000000000000000000000000000000000000000000000000000000000000000000000000000000000000000000000000000000000000000000000000000000000000000000000000000000000000000000000000000000000000000000000000000000000000000000000000000000000000000000000000000000000000000000000000000000000000000000000000000000000000000000000000000000000000000000000000000000000000000000000000000000000000000000000000000000000000000000000000000000000000000000000000000000000000000000000000000000000000000000000000000000000000000000000000000000000000000000000000000000000000000000000000000000000000000000000000000000024000000000000000000000000000000000000000000000000000000000000000000000000000000000000000000000000000000000000000000000000000000000000000000000000000000000000000000000000000000000000000000000000000000000000000000000000000000000000000000000000000000000000000000000000000000000000000000000000000000000000000000000000000000000000000000000000000000000000000000000000000000000000000000000000000000000000000000000000000000000000000000000000000000000000000000000000000000000000000000000000000000000000000000000000000000000000000000000000000000000000000000000000000000000000000000000000000000000000000000000000000000000000000000000000000000000000000000000000000000000000000000000000000000000000000000000000000000000000000000000000000000000000000000000000000000000000000000000000000000000000000000000000000000000000000000000000000000000000000000000000000000000000000000000000000000000000000000000000000000000000000000000000000000000000000000000000000000000000000000000000000000000000000000000000000000000000000000000000000000000000000000000000000000000000000000000000000000000000000000000000000000000000000000000000000000000000000000000000000000000000000000000000000000000000000000000000000000000000000000000000000000000000000000000000000000000000000000000000000000000000000000000000000000000000000000000000000000000000000000000000000000000000000000000000000000000000000000000000000000000000000000000000000000000000000000000000000000000000000000000000000000000000000000000000000000000000000000000000000000000000000000000000000000000000000000000000000000000000000000000000000000000000000000000000000000000000000000000000000000000000000000000000000000000000000000000000000000000000000000000000000000000000000000000000000000000000000000000000000000000000000000000000000000000000000000000000000000000000000000000000000000000000000000000000000000000000000000000000000000000000000000000000000000000000000000000000000000000000000000000000000000000000000000000000000000000000000000000000000000000000000000000000000000000000000000000000000000000000000000000000000000000000000000000000000000000000000000000000000000000000000000000000000000000000000000000000000000000000000000000000000000000000000000000000000000000000000000000000000000000000000000000000000000000000000000000000000000000000000000000000000000000000000000000000000000000000000000000000000000000000000000000000000000000000000000000000000000000000000000000000000000000000000000000000000000000000000000000000000000000000000000000000000000000000000000000000000000000000000000000000000000000000000000000000000000000000000000000000000000000000000000000000000000000000000000000000000000000000000000000000000000000000000000000000000000000000000000000000000000000000000000000000000000000000000000000000000000000000000000000000000000000000000000000000000000000000000000000000000000000000000000000000000000000000000000000000000000000000000000000000000000000000000000000000000000000000000000000000000000000000000000000000000000000000000000000000000000000000000000000000000000000000000000000000000000000000000000000000000000000000000000000000000000000000000000000000000000000000000000000000
#064320:0000005400000000000000000000000000000000000000000000000000000000
#064381:00001626
#064320:00001626
#064380:0000000000560000
#0653a0:14
#065360:00000034240000000000000000000000
#065321:00140000
#065361:0000002400000000
#065321:0000000014240000
#065361:00000000000000000054000000000000
#0653a0:0000000000142400
#065360:00000000000000000000005400000000
#065321:0000000000001424
#065361:00000000000000000000000000540000
#066321:0014000000000000240000000000000000000000000000000000000000000000
#0663a0:0000000000140000240000000000000000000000000000000000000000000000
#066380:00001626
#066320:0000000000560000
#067320:16362600
#067380:0000005600000000
#067381:16362600
#067321:0056000000000000
#068321:13
#068361:00000023000000000000000000000000
#068321:0000000000001323
#0683b0:0000000000000013
#0693b0:23
#069361:14
#069321:00530000230000000000000000000000
#069321:0014
#0693a1:0000000000540054
#069341:00000034
#070321:342c0000
#0693a0:0014
#069320:0000000000540054
#069380:00000034
#0703a0:34
#070320:00000000000000000000000000000000000000000000000000000000000000000000000000000000000000000000000000000000000000000000000000000000000000000000000000000000000000000000000000000000000000000000000000000000000000000000000000000000000000000000000000000000000000000000000000000000000000000000000000000000000000000000000000000000000000000000000000000000000000000000000000000000000000000000000000000000000000000000000000000000000000000000000000000000000000000000000000000000000000000000000000000000000000000000000000000000000000000000000000000000000000000000000000000000000000000000000000000000000000000000000000000000000000000000000000000000000000000000000000000000000000000000000000000000000000000000000000000000000000000000000000000000000000000000000000000000000000000000000000000000000000000000000000000000000000000000000000000000000000000000000000000000000000000000000000000000000000000000000000000000000000000000000000000000000000000000000000000000000000000000002c000000000000000000000000000000000000000000000000000000000000000000000000000000000000000000000000000000000000000000000000000000000000000000000000000000000000000000000000000000000000000000000000000000000000000000000000000000000000000000000000000000000000000000000000000000000000000000000000000000000000000000000000000000000000000000000000000000000000000000000000000000000000000000000000000000000000000000000000000000000000000000000000000000000000000000000000000000000000000000000000000000000000000000000000000000000000000000000000000000000000000000000000000000000000000000000000000000000000000000000000000000000000000000000000000000000000000000000000000000000000000000000000000000000000000000000000000000000000000000000000000000000000000000000000000000000000000000000000000000000000000000000000000000000000000000000000000000000000000000000000000000000000000000000000000000000000000000000000000000000000000000000000000000000000000000000000000000000000000000000000000000000000000000000000000000000000000000000000000000000000000000000000000000000000000000000000000000000000000000000000000000000000000000000000000000000000000000000000000000000000000000000000000000000000000000000000000000000000000000000000000000000000000000000000000000000000000000000000000000000000000000000000000000000000000000000000000000000000000000000000000000000000000000000000000000000000000000000000000000000000000000000000000000000000000000000000000000000000000000000000000000000000000000000000000000000000000000000000000000000000000000000000000000000000000000000000000000000000000000000000000000000000000000000000000000000000000000000000000000000000000000000000000000000000000000000000000000000000000000000000000000000000000000000000000000000000000000000000000000000000000000000000000000000000000000000000000000000000000000000000000000000000000000000000000000000000000000000000000000000000000000000000000000000000000000000000000000000000000000000000000000000000000000000000000000000000000000000000000000000000000000000000000000000000000000000000000000000000000000000000000000000000000000000000000000000000000000000000000000000000000000000000000000000000000000000000000000000000000000000000000000000000000000000000000000000000000000000000000000000000000000000000000000000000000000000000000000000000000000000000000000000000000000000000000000000000000000000000000000000000000000000000000000000000000000000000000000000000000000000000000000000000000000000000000000000000000000000000000000000000000000000000000000000000000000000000000000000000000000000000000000000000000000000000000000000000000000000000000000000000000000000000000000000000000000000000000000000000000000000000000000000000000000000000000000000000000000000000000000000000000000000000000000000000000000000000000000000000000000000000000000000000000000000000000000000000000000000000000000000000000000000000000000000000000000000000000000000000000000000000
#074321:14342400
#074361:0054005400000000
#0753a1:14240000
#075361:0054000000000000
#0763a1:14342400
#076361:0054005400000000
#077321:00000013
#078321:2c
#0773b0:00000013
#077320:00000000000000000000000000000000000000000000000000000000000000000000000000000000000000000000000000000000000000000000000000000000000000000000000000000000000000000000000000000000000000000000000000000000000000000000000000000000000000000000000000000000000000000000000000000000000000000000000000000000000000000000000000000000000000000000000000000000000000000000000000000000000000000000000000000000000000000000000000000000000000000000000000000000000000000000000000000000000000000000000000000000000000000000000000000000000000000000000000000000000000000000000000000000000000000000000000000000000000000000000000000000000000000000000000000000000000000000000000000000000000000000000000000000000000000000000000000000000000000000000000000000000000000000000000000000000000000000000000000000000000000000000000000000000000000000000000000000000000000000000000000000000000000000000000000000000000000000000000000000000000000000000000000000000000000000000000000000000000000000000000000000000000000000000000000000000000000000000000000000000000000000000000000000000000000000000000000000000000000000000000000000000000000000000000000000000000000000000000000000000000000000000000000000000000000000000000000000000000000000000000000000000000000000000000000000000000000000000000000000000000000000000000000000000000000000000000000000000000000000000000000000000000000000000000000000000000000000000000000000000000000000000000000000000000000000000000000000000000000000000000000000000000000000000000000000000000000000000000000000000000000000000000000000000000000000000000000000000000000000000000000000000000000000000000000000000000000000000000000000000000000000000000000000000000000000000000000000000000000000000000000000000000000000000000000000000000000000000000000000000000000000000000000000000000000000000000000000000000000000000000000000000000000000000000000000000000000000000000000000000000000000000000000000000000000000000000000000000000000000000000000000000000000000000000000000000000000000000000000000000000000000000000000000000000000000000000000000000000000000000000000000000000000000000000000000000000000000000000000000000000000000000000000000000000000000000000000000000000000000000000000000000000000000000000000000000000000000000000000000000000000000000000000000000000000000000000000000000000000000000000000000000000000000000000000000000000000000000000000000000000000000000000000000000000000000000000000000000000000000000000000000000000000000000000000000000000000000000000000000000000000000000000000000000000000000000000000000000000000000000000000000000000000000000000000000000000000000000000000000000000000000000000000000000000000000000000000000000000000000000000000000000000000000000000000000000000000000000000000000000000000000000000000000000000000000000000000000000000000000000000000000000000000000000000000000000000000000000000000000000000000000000000000000000000000000000000000000000000000000000000000000000000000000000000000000000000000000000000000000000000000000000000000000000000000000000000000000000000000000000000000000000000000000000000000000000000000000000000000000000000000000000000000000000000000000000000000000000000000000000000000000000000000000000000000000000000000000000000000000000000000000000000000000000000000000000000000000000000000000000000000000000000000000000000000000000000000000000000000000000000000000000000000000000000000000000000000000000000000000000000000000000000000000000000000000000000000000000000000000000000000000000000000000000000000000000000000000000000000000000000000000000000000000000000000000000000000000000000000000000000000000000000000000000000000000000000000000000000000000000000000000000000000000000000000000000000000000000000000000000000000000000000000000000000000000000000000000000000000000000000000000000000000000000000000000000000000000000000000000000000000000000000000000000000000000000000000000000000000000002c
#005970:0000000000000014
#0069a0:24
#013960:14240000
#024920:00001424
#024960:0000000000540000
#0249a1:00000014
#024961:0000000000000054
#0259a1:24
#0289a1:14
#028961:0024000000000000000000000000000000000000000000000000000000000000
#028921:0014000000000000
#028961:0000000000240000000000000000000000000000000000000000000000000000
#038921:00001626
#038981:0000000000560000
#058921:14
#058961:0024000000000000000000000000000000000000000000000000000000000000
#0589a1:0014000000000000
#058961:0000000000240000000000000000000000000000000000000000000000000000
#062921:1424
#0629a1:00540000
#066961:14
#066921:0024000000000000000000000000000000000000000000000000000000000000
#066961:0014000000000000
#0669a1:0000000000240000000000000000000000000000000000000000000000000000
#076971:0000000000000014
#0779a1:24
