This file was generated by Ched 2.7.0.0.
#TITLE ""
#ARTIST ""
#DESIGNER ""
#DIFFICULTY 0
#PLAYLEVEL
#SONGID ""
#WAVE ""
#WAVEOFFSET 0
#JACKET ""
#REQUEST "ticks_per_beat 480"
#00002: 4
#BPM01: 135
#00008: 01
#TIL00: ""
#VOLUME: ""
#HISPEED 00
#MEASUREHS 00
#0091a:14
#00910:41
#02518:0016
#02512:26
#0251f:21
#02712:0016
#02718:16
#02912:1616
#03018:1616
#0101a:14
#01112:14
#01212:14
#0131a:14
#01314:0014
#01418:14
#01412:0014
#03312:1616
#03310:41
#03518:1616
#03912:14
#03918:0014
#04014:14
#0401a:0014
#04010:41
#0451a:14
#04712:2414
#04710:41
#04818:1414
#04914:1414
#0501a:1414
#05112:16
#05118:0016
#05212:16
#05218:0016
#05312:16
#05318:0016
#05512:16
#03712:14
#0381a:14
#04114:00003414
#04112:24
#04318:00003414
#0431a:24
#0171f:11
#03112:26
#03218:26
#05412:26
#04214:34
#04418:34
#02610:41
#00410:41
#05712:64
#0455a:64
#05552:56
#03752:64
#0385a:64
#04154:00000024
#04152:64
#04358:00000024
#0435a:64
#0013a0:14
#0023a0:24
#003320:14
#004320:24
#0053a0:14
#006380:24
#007320:14
#008340:24
#0153a0:1434
#0163a0:24
#017320:14
#018340:34
#019320:34
#020340:24
#0213a0:14
#022380:34
#0233a0:34
#024380:24
#026320:1626
#028380:1626
#031320:1626
#032380:1626
#034320:1626
#036380:1626
#037320:14
#037340:0024
#0383a0:14
#038380:0024
#041320:14
#041340:00003454
#042340:34
#042320:0024
#0433a0:14
#043380:00003454
#044380:34
#0443a0:0034
#0453a0:34
#046380:24
#054320:16000036
#055320:36
#057320:24
