This file was generated by Ched 2.7.0.0.
#TITLE ""
#ARTIST ""
#DESIGNER ""
#DIFFICULTY 0
#PLAYLEVEL
#SONGID ""
#WAVE ""
#WAVEOFFSET 0
#JACKET ""
#REQUEST "ticks_per_beat 480"
#00002: 4
#BPM01: 128
#00008: 01
#TIL00: ""
#VOLUME: ""
#HISPEED 00
#MEASUREHS 00
#01012:16
#01118:16
#01212:16
#01512:14
#01618:14
#01718:14
#01710:41
#01814:14
#01914:14
#0201a:14
#0211a:14
#01412:14
#02318:14
#02414:14
#0251a:14
#02510:41
#02612:14
#02718:14
#02814:14
#0291a:14
#03918:0016
#03912:26
#0391f:21
#04012:16
#04018:0016
#04010:41
#04112:1616
#04312:0016
#04318:16
#04418:16
#04412:0016
#04518:1616
#04712:0016
#04718:26
#04818:16
#04812:0016
#05118:1616
#05312:1616
#05518:16
#05512:0016
#05618:16
#05612:0016
#06118:16
#0301f:11
#01318:26
#02212:24
#03813:24
#03819:00240000
#04912:0026
#04918:26
#05018:26
#05012:0026
#05010:41
#06318:26
#00712:26
#00918:26
#00910:41
#06218:26
#06212:0026
#05812:26
#05818:0026
#05810:41
#05912:26
#06358:56
#001380:14
#002380:24
#003340:14
#004340:24
#005380:14
#006380:24
#007320:16
#008320:26
#030340:14
#031340:24
#032380:14
#033380:24
#034320:14
#035320:24
#0363a0:14
#0373a0:24
#042320:1626
#046320:1626
#052380:1626
#054320:1626
#057380:1626
#059320:16
#060320:0026
#063380:16
#066350:0026
