This file was generated by Ched 2.7.0.0.
#TITLE ""
#ARTIST ""
#DESIGNER ""
#DIFFICULTY 0
#PLAYLEVEL
#SONGID ""
#WAVE ""
#WAVEOFFSET 0
#JACKET ""
#REQUEST "ticks_per_beat 480"
#00002: 4
#BPM01: 167
#00008: 01
#TIL00: ""
#VOLUME: ""
#HISPEED 00
#MEASUREHS 00
#0111a:14
#01110:41
#01214:14
#0131a:14
#01414:14
#01518:14
#01612:14
#01718:14
#01812:14
#0271a:14
#02710:41
#0281a:14
#02914:14
#03014:14
#03118:14
#03218:14
#03312:14
#03412:14
#03410:41
#03614:14
#03718:14
#03812:14
#0401a:14
#04212:14
#04112:14
#04518:0016
#04512:26
#0451f:21
#04510:0041
#04718:16
#04712:0016
#04912:1616
#05018:1616
#05112:16
#05118:0016
#05512:16
#05518:0016
#05718:1616
#05812:1616
#05918:16
#05912:0016
#0351f:11
#0351a:24
#0391a:24
#05318:26
#05312:0026
#05418:26
#01910:41
#00310:41
#001320:14
#002320:24
#0033a0:14
#0043a0:24
#005340:14
#006340:24
#007380:14
#008380:24
#009320:14
#010320:24
#0193a0:14
#020380:34
#0213a0:34
#022380:24
#023320:14
#024340:34
#025320:34
#026340:24
#043380:14
#044380:24
#046320:1626
#048380:1626
#052320:1626
#054380:1626
#056320:1626
#060380:1626
#061320:16
#062320:00000026
