This file was generated by Ched 2.7.0.0.
#TITLE ""
#ARTIST ""
#DESIGNER ""
#DIFFICULTY 0
#PLAYLEVEL
#SONGID ""
#WAVE ""
#WAVEOFFSET 0
#JACKET ""
#REQUEST "ticks_per_beat 480"
#00002: 4
#BPM01: 227
#00008: 01
#TIL00: ""
#VOLUME: ""
#HISPEED 00
#MEASUREHS 00
#00318:14
#0001a:14
#0251a:0014
#02714:14
#02818:0014
#03012:14
#0311a:0014
#03312:14
#03712:0014
#0371f:0011
#03912:14
#05418:16
#05412:00000016
#05410:00000041
#05512:0016
#05618:00160000
#05712:16
#06012:16
#06018:00000016
#06118:0016
#06212:00160000
#06318:16
#06612:16
#06618:00000016
#06712:0016
#06818:00160000
#06810:00410000
#06918:16000016
#07218:16
#07212:00000016
#07318:0016
#0861a:00140000
#08714:00000014
#08918:00140000
#09012:00000014
#0921a:00140000
#09314:00000014
#09518:00140000
#09612:00000016
#00114:0014
#00412:0014
#0061a:14
#00714:0014
#01318:0014
#01914:0014
#0181a:14
#02414:14
#03818:00140000
#0401a:0014
#0421a:14
#04114:00140000
#04312:0014
#04512:14
#04418:00140000
#07712:00160000
#07818:16
#07812:00000016
#07918:0016
#01212:24
#0461a:0024
#04814:24
#04918:0024
#05112:24
#05318:00260000
#0531f:00210000
#06518:00260000
#09718:0026
#08012:00260000
#05912:00260000
#07112:00260000
#01110:00410000
#02310:00410000
#03610:41
#08110:41
#08052:00560000
#009380:14
#010380:0024
#015320:14
#016320:0024
#0213a0:14
#0223a0:0024
#034380:0014
#036380:24
#057380:00000016
#058380:0026
#063320:00000016
#064320:0026
#074320:00160000
#075320:26
#075380:00000016
#076380:0026
#080320:00160000
#083350:00260000
