This file was generated by Ched 2.7.0.0.
#TITLE ""
#ARTIST ""
#DESIGNER ""
#DIFFICULTY 0
#PLAYLEVEL
#SONGID ""
#WAVE ""
#WAVEOFFSET 0
#JACKET ""
#REQUEST "ticks_per_beat 480"
#00002: 4
#BPM01: 160
#00008: 01
#TIL00: ""
#VOLUME: ""
#HISPEED 00
#MEASUREHS 00
#0001a:14
#0011a:14
#00212:14
#00312:14
#00418:14
#00518:14
#00614:14
#00714:14
#00914:14
#01018:14
#01112:14
#0121a:14
#01314:14
#01418:14
#01512:14
#02412:0016
#02418:26
#02410:41
#02612:16
#02618:0016
#02818:1616
#03012:1616
#0321a:14
#03214:0014
#03318:14
#03312:0014
#03418:14
#03414:0014
#03612:14
#03618:0014
#03714:14
#0371a:0014
#03814:14
#03818:0014
#04418:14
#0441a:0034
#04614:14
#04612:0034
#04814:0014
#0481f:11
#0481a:24
#0491a:14
#05012:14
#05018:0014
#05112:14
#0521a:14
#05214:0014
#05318:14
#05412:14
#05418:0014
#05618:1616
#05612:00260000
#0561f:00210000
#05818:1616
#06012:1616
#06018:00160000
#06212:1616
#06412:00160000
#06418:2616
#06512:16
#06518:0016
#06612:1616
#06618:00160000
#06718:16
#06712:0016
#06818:1616
#06812:00160000
#0701a:14
#07014:0014
#07118:14
#07218:0014
#07210:41
#07314:14
#0731a:0014
#07412:14
#07418:0014
#0761a:14
#07612:0014
#07812:14
#0781a:0014
#08018:14
#08014:0014
#08214:14
#08218:0014
#0081a:24
#00810:41
#0451a:34
#04712:34
#01610:41
#04010:41
#05710:41
#04458:64
#04654:54
#0163a0:14
#0173a0:24
#018320:14
#019320:24
#020380:14
#0213a0:24
#022340:14
#023320:24
#025380:1626
#027320:1626
#029380:1626
#031320:1626
#0353a0:1424
#039320:1424
#0403a0:14
#041380:3424
#042320:14
#043340:3424
#044380:14
#0443a0:0034
#0453a0:3424
#046340:14
#046320:0034
#047320:3424
#055340:1424
#057320:1626
#059380:1626
#061380:1626
#063320:1626
#069320:1626
#071320:0014
#072320:24
#075340:1424
#077380:1424
#079340:1424
#0813a0:1424
#083320:14000000000000003400003400002400
