This file was generated by Ched 2.7.0.0.
#TITLE ""
#ARTIST ""
#DESIGNER ""
#DIFFICULTY 0
#PLAYLEVEL
#SONGID ""
#WAVE ""
#WAVEOFFSET 0
#JACKET ""
#REQUEST "ticks_per_beat 480"
#00002: 4
#BPM01: 160
#00008: 01
#TIL00: ""
#VOLUME: ""
#HISPEED 00
#MEASUREHS 00
#0001a:14
#00014:00140000
#00018:0014
#00012:00000014
#0011a:14
#00114:00140000
#00212:14
#00218:00140000
#00214:0014
#0021a:00000014
#00312:14
#00318:00140000
#0041a:14
#00414:00140000
#00418:0014
#00412:00000014
#0051a:14
#00514:00140000
#00612:14
#00618:00140000
#00614:0014
#0061a:00000014
#00712:14
#00718:00140000
#0081a:2414
#00810:41
#00914:1414
#01018:1414
#01112:1414
#0121a:14
#01218:0014
#01312:14
#01314:0014
#0161a:14
#01614:0014
#01618:00000014
#01610:41
#01712:14
#01718:0014
#01714:00000014
#02012:0014
#02018:14000014
#02114:14000014
#0211a:0014
#02218:14
#02314:14
#02418:2614
#02414:00000014
#02412:00140000
#02410:41
#0251a:14
#02612:16
#02614:0014
#02618:00000014
#0261a:00140000
#02712:14
#02814:00140000
#0281a:0014
#02812:00000014
#02818:24
#02918:14
#03014:14
#03018:00140000
#03012:0014
#0301a:00000014
#03114:14
#03214:00140000
#03218:0014
#03212:00000014
#0321a:24
#03318:14
#03314:00140000
#0331a:0014
#03412:14
#03418:00140000
#03414:0014
#0341a:00000014
#03514:14
#03518:00140000
#03512:0014
#03618:0014
#03612:00140000
#03614:00000014
#0361a:24
#0371a:14
#03712:00140000
#03718:0014
#04312:00000016
#0441a:14141414
#04514:14141414
#04618:14141414
#04712:14140000
#0481a:2414
#0481f:11
#04918:00140014
#04914:1414
#05012:1414
#05114:00140014
#05118:1414
#0521a:14
#05218:0014
#05312:14
#05318:00140000
#05314:0014
#0531a:00000014
#05412:14
#05414:0014
#0551a:14
#05514:00140000
#05518:0014
#05512:00000014
#0571a:14
#05714:00140000
#05718:0014
#05712:00000014
#05710:41
#0581a:14140000
#05912:14
#05918:00140000
#05914:0014
#0591a:00000014
#06012:14
#06013:00140000
#0611a:14
#06112:00140000
#06118:0014
#06114:00000014
#0621a:14
#06219:00140000
#06312:14
#0631a:00140000
#06314:0014
#06318:00000014
#06418:00140000
#06412:26
#0651a:14
#06516:00140014
#06512:0014
#0661a:14
#06614:00140000
#06712:14
#06716:00140014
#0671a:0014
#06818:00140000
#06812:24
#0691a:14
#06916:00140014
#06912:0014
#0701a:14
#07012:00140000
#07018:0014
#07014:00000014
#0711a:14
#07112:00140000
#07214:0014
#07210:41
#0731a:1414
#07312:00140000
#07414:14
#07418:0014
#07512:14
#0751a:00140000
#0761a:0014
#07714:14
#07718:00140000
#07712:0014
#0781a:14
#07812:0014
#07918:14
#07914:00140000
#0791a:0014
#08018:0014
#08014:24
#08112:14
#0811a:00140000
#08114:0014
#08218:1414
#08214:00140014
#0831a:14
#05618:26
#0561f:00210000
#03812:00343400
#04010:41
#02258:64
#02354:54
#02352:0014
#0255a:54
#02558:0014
#02752:64
#02754:0014
#02958:64
#0295a:0014
#03154:54
#03152:0014
#0335a:0014
#03552:0014
#03758:0014
#0395a:0014
#04358:0016
#04352:00000016
#05658:00160000
#07258:14
#07652:16
#07752:0014
#0795a:0014
#08154:0014
#08457:00140000
#0835a:64
#001380:00001424
#003340:00001424
#005380:00001424
#007340:00001424
#0143a0:1424
#015320:1424
#0183a0:14
#018380:0024
#019320:14
#019340:0024
#022380:14
#0223a0:0024
#023340:14
#023320:0024
#0253a0:14
#025380:0024
#027320:14
#027340:0024
#029380:14
#0293a0:0024
#031340:14
#031320:0024
#038340:14
#038320:00343424
#039380:14
#039390:00340000
#0393a0:0024
#040320:160000000000000000000000000000000000000000000000000000000000000000000000000000000000000000000000000000000000000000000000000000000000000000000000000000000000000000000000000000000000000000000000000000000000000000000000000000000000000000000000000000000000000000000000000000000000000000000000000000000000000000000000000000000000000000000000000000000000000000000000000000000000000000000000000000000000000000000000000000000000000000000000000000000000000000000000000000000000000000000000000000000000000000000000000000000000000000000000000000000000000000000000000000000000000000000000000000000000000000000000000000000000000000000000000000000000000000000000000000000000000000000000000000000000000000000000000000000000000000000000000000000000000000000000000000000000000000000000000000000000000000000000000000000000000000000000000000000000000000000000000000000000000000000000000000000000000000000000000000000000000000000000000000000000000000000000000000000000000000000000000000000000000000000000000000000000000000000000000000000000000000000000000000000000000000000000000000000000000000000000000000000000000000000000000000000000000000000000000000000000000000000000000000000000000000000000000000000000000000000000000000000000000000000000000000000000000000000000000000000000000000000000000000000000000000000000000000000000000000000000000000000000000000000000000000000000000000000000000000000000000000000000000000000000000000000000000000000000000000000000365500000000000000000000000000000000000000000000000000000000000000000000000000000000000000000000000000000000000000000000000000000000000000000000000000000000000000000000000000000000000000000000000000000000000000000000000000000000000000000000000000000000000000000000000000000000000000000000000000000000000000000000000000000000000000000000000000000000000000000000000000000000000000000000000000000000000000000000000000000000000000000000000000000000000000000000000000000000000000000000000000000000000000000000000000000000000000000000000000000000000000000000000000000000000000000000000000000000000000000000000000000000000000000000000000000000000000000000000000000000000000000000000000000000000000000000000000000000000000000000000000000000000000000000000000000000000000000000000000000000000000000000000000000000000000000000000000000000000000000000000000000000000000000000000000000000000000000000000000000000000000000000000000000000000000000000000000000000000000000000355600000000000000000000000000000000000000000000000000000000000000000000000000000000000000000000000000000000000000000000000000000000000000000000000000000000000000000000000000000000000000000000000000000000000000000000000000000000000000000000000000000000000000000000000000000000000000000000000000000000000000000000000000000000000000000000000000000000000000000000000000000000000000000000000000000000000000000000000000000000000000000000000000000000000000000000000000000000000000000000000000000000000000000000000000000000000000000000000000000000000000000000000000000000000000000000000000000000000000000000000000000000000000000000000000000000000000000000000000000000000000000000000000000000000000000000000000000000000000000000000000000000000000000000000000000000000000000000000000000000000000000000000000000000000000000000000000000000000000000000000000000000000000000000000000000000000000000000000000000000000000000000000000000000000000000000000000000000000000000000000000000000000000000000000000000000000000000000000000000000000000000000000000000000000000000000000000000000000000000000000000000000000000000000000000000000000000000000000000000000000000000000000000000000000000000000000000000000000000000000000000000000000000000000000000000000000000000000000000000000000000000000000000000000000000000000000000000000000000000000000000000000000000000000000000000000000000000000000000000000000000000000000000000000000000000000000000000000000000000000
#041320:000000000000000000000000000000000000000000000000000000000000000000000000000000000000000000000000000000000000000000000000000000000000000000000000000000000000000000000000000000000000000000000000000000000000000000000000000000000000000000000000000000000000000000000000000000000000000000000000000000000000000000000000000000000000000000000000000000000000000000000000000000000000000000000000000000000000000000000000000000000000000000000000000000000000000000000000000000000000000000000000365500000000000000000000000000000000000000000000000000000000000000000000000000000000000000000000000000000000000000000000000000000000000000000000000000000000000000000000000000000000000000000000000000000000000000000000000000000000000000000000000000000000000000000000000000000000000000000000000000000000000000000000000000000000000000000000000000000000000000000000000000000000000000000000000000000000000000000000000000000000000000000000000000000000000000000000000000000000000000000000000000000000000000000000000000000000000000000000000000000000000000000000000000000000000000000000000000000000000000000000000000000000000000000000000000000000000000000000000000000000000000000000000000000000000000000000000000000000000000000000000000000000000000000000000000000000000000000000000000000000000000000000000000000000000000000000000000000000000000000000000000000000000000000000000000000000000000000000000000000000000000000000000000000000000000000000000000000000000000000000000000000000000000000000000000000000000000000000000000000000000000000000000000000000000000000000000000000000000000000000000000000000000000000000000000000000000000000000000000000000000000000000000000000000000000000000000000000000000000000000000000000000000000000000000000000000000000000000000000000000000000000000000000000000000000000000000000000000000000000000000000000000000000000000000000000000000000000000000000000000000000000000000000000000000000000000000000000000000000000055360000000000000000000000000000000000000000000000000000000000000000000000000000000000000000000000000000000000000000000000000000000000000000000000000000000000000000000000000000000000000000000000000000000000000000000000000000000000000000000000000000000000000000000000000000000000000000000000000000000000000000000000000000000000000000000000000000000000000000000000000000000000000000000000000000000000000000000000000000000000000000000000000000000000000000000000000000000000000000000000000000000000000000000000000000000000000000000000000000000000000000000000000000000000000000000000000000000000000000000000000000000000000000000000000000000000000000000000000000000000000000000000000000000000000000000000000000000000000000000000000000000000000000000000000000000000000000000000000000000000000000000000000000000000000000000000000000000000000000000000000000000000000000000000000000000000000000000000000000000000000000000000000000000000000000000000000000000000000000000000260000000000000000000000000000000000000000000000000000000000000000000000000000000000000000000000000000000000000000000000000000000000000000000000000000000000000000000000000000000000000000000000000000000000000000000000000000000000000000000000000000000000000000000000000000000000000000000000000000000000000000000000000000000000000000000000000000000000000000000000000000000000000000000000000000000000000000000000000000000000000000000000000000000000000000000000000000000000000000000000000000000000000000000000000000000000000000000000000000000000000000000000000000000000000000000000000000000000000000000000000000000000000000000000000000000000000000000000000000000000000000000000000000000000000000000000000000000000000000000000000000000000000000000000000000000000000000000000000000000000000000000000000000000000000000000000000000000000000000000000000000000000000000000000000000000000000000000000000000000000000000000000000000000000000000000000000000000000000000000000
#042380:1600000000363600
#042390:000000000000000000000000000000000000000000000000000000000000000000000000000000000000000000000000000000000000000000000000000000000000000000000000000000000000000000000000000000000000000000000000000000000000000000000000000000000000000000000000000000000000000000000000000000000000000000000000000000000000000000000000000000000000000000000000000000000000000000000000000000000000000000000000000000000000000000000000000000000000000000000000000000000000000000000000000000000000000000000000000000000000000000000000000000000000000000000000000000000000000000000000000000000000000000000000000000000000000000000000000000000000000000000000000000000000000000000000000000000000000000000000000000000000000000000000000000000000000000000000000000000000000000000000000000000000000000000000000000000000000000000000000000000000000000000000000000000000000000000000000000000000000000000000000000000000000000000000000000000000000000000000000000000000000000000000000000000000000000000000000000000000000000000000000000000000000000000000000000000000000000000000000000000000000000000000000000000000000000000000000000000000000000000000000000000000000000000000000000000000000000000000000000000000000000000000000000000000000000000000000000000000000000000000000000000000000000000000000000000000000000000000000000000000000000000000000000000000000000000000000000000000000000000000000000000000000000000000000000000000000000000000000000000000000000000000000000000000000000000000000000000000000000000000000000000000000000000000000000000000000000000000000000000000000000000000000000000000000000000000000000000000000000000000000000000000000000000000000000000000000000000000000000000000000000000000000000000000000000000000000000000000000000000000000000000000000000000000000000000000000000000000000000000000000000000000000000000000000000000000000000000000000000000000000000000000000000000000000000000000000000000000000000000000000000000000000000000000000000000000000000000000000000000000000000000000000000000000000000000000000000000000000000000000000000000000000000000000000000000000000000000000000000000000000000000000000000000000000000000000000000000000000000000000000000000000000000000000000000000000000000000000000000000000000000000000000000000000000000000000000000000000000000000000000000000000000000000000000000000000000000000000000000000000000000000000000000000000000000000000000000000000000000000000000000000000000000000000000000000000005500000000000000000000000000000000000000000000000000000000000000000000000000000000000000000000000000000000000000000000000000000000000000000000000000000000000000000000000000000000000000000000000000000000000000000000000000000000000000000000000000000000000000000000000000000000000000000000000000000000000000000000000000000000000000000000000000000000000000000000000000000000000000000000000000000000000000000000000000000000000000000000000000000000000000000000000000000000000000000055000000000000000000000000000000000000000000000000000000000000000000000000000000000000000000000000000000000000000000000000000000000000000000000000000000000000000000000000000000000000000000000000000000000000000000000000000000000000000000000000000000000000000000000000000000000000000000000000000000000000000000000000000000000000000000000000000000000000000000000000000000000000000000000000000000000000000000000000000000000000000000000000000000000000000000000000000000000000000000000000000000000000000000000000000000000000000000000000000000000000000000000000000000000000000000000000000000000000000000000000000000000000000000000000000000000000000000000000000000000000000000000000000000000000000000000000000000000000000000000000000000000000000000000000000000000000000000000000000000000000000000000000000000000000000000000000000000000000000000000000000000000000000000000000000000000000000000000000000000000000000000000000000000000000000000000000000000000000000000000000
#043380:0026
#047320:00001424
#056380:16260000
#056320:00001424
#0583a0:00001424
#060340:00001424
#062380:00001424
#064340:00001424
#066380:00001424
#068340:00001424
#071380:00000000000000001400003400003400
#072380:24
#075320:0014
#076320:26
#0833a0:14
#083370:00000000000000003400003400003400
#084370:00240000
