This file was generated by Ched 2.7.0.0.
#TITLE ""
#ARTIST ""
#DESIGNER ""
#DIFFICULTY 0
#PLAYLEVEL
#SONGID ""
#WAVE ""
#WAVEOFFSET 0
#JACKET ""
#REQUEST "ticks_per_beat 480"
#00002: 4
#BPM01: 152
#00008: 01
#TIL00: ""
#VOLUME: ""
#HISPEED 00
#MEASUREHS 00
#0051a:14
#0061a:14
#00712:14
#00812:14
#00912:0016
#00918:26
#00910:41
#01112:16
#01118:0016
#01318:16
#01312:0016
#01418:1616
#01512:16
#01518:0016
#01612:16
#01618:0016
#01914:14
#02014:14
#02010:41
#02118:14
#02218:14
#02314:14
#02414:14
#0291a:14
#02910:41
#03014:14
#03118:14
#03212:14
#0331a:14
#03314:0014
#0341a:14
#03512:14
#03518:0014
#03612:14
#04518:14
#04514:0024
#04612:0016
#04618:26
#0461f:21
#04610:0041
#04812:16
#04818:0016
#05018:16
#05012:0016
#05118:1616
#05212:16
#05218:0016
#05312:1616
#05412:0016
#05418:26
#05518:1616
#05512:00160000
#05612:16000016
#05618:0016
#05818:0016
#05812:26
#05810:41
#05912:1616
#05918:00160000
#06018:16000016
#06012:0016
#06112:16
#06114:0016
#06218:0016
#06418:16
#06412:0016
#06612:16
#06618:0016
#06818:14
#06918:14
#07014:14
#07114:14
#07218:1414
#07314:1414
#07418:1414
#07514:14
#0391f:11
#0181a:24
#02812:34
#02713:0034
#0261a:34
#02519:0034
#03810:41
#06154:0026
#06152:56
#001380:14
#002380:24
#003340:14
#004340:24
#010380:1626
#012320:1626
#017320:16362600
#025380:14
#025390:0034
#0263a0:3424
#027340:14
#027330:0034
#028320:3424
#0373a0:14
#038380:34
#0393a0:34
#040380:24
#041320:14
#042340:34
#043320:34
#044340:24
#047380:1626
#049320:1626
#057380:1626
#061320:16
#061340:0056
#062320:26
#063320:1626
#065380:1626
#067320:1626
