This file was generated by Ched 2.7.0.0.
#TITLE ""
#ARTIST ""
#DESIGNER ""
#DIFFICULTY 0
#PLAYLEVEL
#SONGID ""
#WAVE ""
#WAVEOFFSET 0
#JACKET ""
#REQUEST "ticks_per_beat 480"
#00002: 4
#BPM01: 170
#00008: 01
#TIL00: ""
#VOLUME: ""
#HISPEED 00
#MEASUREHS 00
#02818:2414
#0281f:21
#0011a:14
#0021a:14
#02212:14
#0231a:14
#00312:14
#00412:14
#00518:14
#00618:14
#00714:14
#00814:14
#0091a:14
#00910:41
#01012:14
#0111a:14
#01212:14
#01318:14
#01414:14
#01518:14
#01614:14
#0171a:14
#01710:41
#02414:14
#02518:14
#02914:1414
#02910:41
#05218:2616
#05312:1616
#05412:0016
#05418:16
#05612:1616
#05610:41
#05718:1616
#05818:0016
#05812:16
#06018:2616
#06112:1616
#06218:16
#06212:0016
#03312:1414
#0321a:1414
#03614:0014
#0361a:24
#0371a:14
#03714:0014
#04012:0014
#04018:14
#04010:41
#04118:14
#04112:0014
#04412:0016
#04418:26
#04612:16
#04618:0016
#04818:16
#04812:0016
#04810:41
#04918:16
#04912:0016
#0211f:11
#06312:0026
#06318:26
#018320:14
#019340:24
#0203a0:14
#021380:24
#026320:14
#026330:0034
#027340:34342400
#0303a0:1424
#031320:1424
#034380:1424
#035340:1424
#0383a0:1424
#039340:1424
#042380:1424
#043320:1424
#045380:1626
#047320:1626
#050380:1626
#051320:1626
#055380:1626
#059320:1626
