This file was generated by Ched 2.7.0.0.
#TITLE ""
#ARTIST ""
#DESIGNER ""
#DIFFICULTY 0
#PLAYLEVEL
#SONGID ""
#WAVE ""
#WAVEOFFSET 0
#JACKET ""
#REQUEST "ticks_per_beat 480"
#00002: 4
#BPM01: 137
#00008: 01
#TIL00: ""
#VOLUME: ""
#HISPEED 00
#MEASUREHS 00
#00918:14
#00910:41
#01018:14
#01114:14
#01214:14
#01912:2616
#02112:0016
#02118:26
#02312:16
#02318:0016
#03018:14
#03114:14
#03214:14
#0411a:14
#04110:41
#04214:14
#04318:14
#04412:14
#0451a:14
#0451f:11
#04614:14
#04718:14
#04812:14
#04918:14
#05014:14
#05118:14
#05214:14
#05318:2616
#0531f:21
#05512:2616
#05712:0016
#05718:26
#05918:0016
#05912:16
#06614:14
#0671a:14
#06812:14
#06918:14
#07018:14
#07114:14
#01318:2616
#01512:2616
#01718:2616
#01710:41
#02518:16
#02512:0016
#02510:41
#02712:16
#02718:0016
#06118:16
#06112:0016
#06312:16
#06318:0016
#02918:24
#06518:24
#05410:41
#03310:41
#001380:14
#002380:24
#003340:14
#004340:24
#0053a0:14
#0063a0:24
#007320:14
#008320:24
#014380:1626
#016320:1626
#018380:1626
#020320:1626
#022380:1626
#024320:1626
#026380:1626
#028320:1626
#0333a0:14
#0343a0:24
#035340:14
#036340:24
#037380:14
#038380:24
#039320:14
#040320:24
#054380:1626
#056320:1626
#058380:1626
#060320:1626
#062380:1626
#064320:1626
#072340:14343424
