This file was generated by Ched 2.7.0.0.
#TITLE ""
#ARTIST ""
#DESIGNER ""
#DIFFICULTY 0
#PLAYLEVEL
#SONGID ""
#WAVE ""
#WAVEOFFSET 0
#JACKET ""
#REQUEST "ticks_per_beat 480"
#00002: 4
#BPM01: 137
#00008: 01
#TIL00: ""
#VOLUME: ""
#HISPEED 00
#MEASUREHS 00
#00918:1414
#00910:41
#0691a:14
#06914:00240024
#01114:1414
#01314:00140014
#01318:2414
#01518:00140014
#01512:2414
#01418:14
#02118:24140000
#02112:00001414
#02218:14
#02314:14140000
#0231a:00001414
#02414:14
#03318:1414
#03310:41
#03414:1414
#0351a:1414
#03612:1414
#0371a:14
#03714:0014
#03818:14
#03812:0014
#0391a:14
#03914:0014
#04018:14
#04012:0014
#0411a:14141400
#04110:41
#04214:14141400
#04318:14141400
#04412:14141400
#0451a:14
#0451f:11
#04514:00240024
#04914:1414
#04918:00140014
#05012:1414
#0501a:00140014
#05314:00140014
#05318:0014
#0531a:24
#0531f:21
#0541a:14
#05410:41
#0611a:14
#06114:00140014
#06118:0014
#0621a:14
#06612:1414
#06618:00140000
#0651a:2414
#06514:00140000
#0671a:1414
#06714:00140000
#06712:00000014
#06818:1414
#06814:00140000
#06812:00000014
#01712:00140014
#01718:2414
#01710:41
#0251a:14140000
#02514:00001414
#02510:41
#0261a:14
#05518:00140014
#05514:0014
#05512:24
#05612:14
#05714:00140000
#05719:0014
#05713:00000014
#0571a:24
#05818:14
#05912:14
#05918:00140000
#05913:0014
#05919:00000014
#01614:14
#01818:14
#0191a:00140014
#01914:2414
#02014:14
#02712:14140000
#02718:00001414
#02812:14
#06014:14
#06312:14
#06318:00140014
#06314:0014
#06412:14
#04618:00240024
#04712:00240024
#0481a:00240024
#05214:24
#07018:00240024
#07112:00240024
#0721a:00240024
#05114:2424
#05118:00240024
#01458:54
#02258:54
#02454:64
#05254:54
#0545a:64
#0625a:54
#0265a:54
#05652:54
#05858:64
#01654:64
#01858:54
#02054:64
#02852:64
#0535a:14
#05552:14
#0575a:14
#05952:14
#06054:54
#0615a:14
#06352:14
#06452:64
#0655a:14
#01358:14
#001380:14
#001390:0034
#0023a0:24
#003340:14
#003330:0034
#004320:24
#0053a0:14
#005390:0034
#006380:24
#007320:14
#007330:0034
#008340:24
#010380:14
#0103a0:0024
#012340:14
#012320:0024
#014380:14
#0143a0:0024
#016340:14
#016320:0024
#018380:14
#0183a0:0024
#020340:14
#020320:0024
#022380:14
#0223a0:0024
#024340:14
#024320:0024
#0263a0:14
#026380:0024
#028320:14
#028340:0024
#0293a0:14
#029380:0034
#0303a0:34
#030380:0024
#031320:14
#031340:0034
#032320:34
#032340:0024
#052340:14
#052320:00000024
#0543a0:14
#054380:0024
#056320:14
#056340:0024
#058380:14
#0583a0:0024
#060340:14
#060320:0024
#0623a0:14
#062380:0024
#064320:14
#064340:0024
