This file was generated by Ched 2.7.0.0.
#TITLE ""
#ARTIST ""
#DESIGNER ""
#DIFFICULTY 0
#PLAYLEVEL
#SONGID ""
#WAVE ""
#WAVEOFFSET 0
#JACKET ""
#REQUEST "ticks_per_beat 480"
#00002: 4
#BPM01: 198
#BPM02: 280
#BPM03: 216
#BPM04: 317
#00008: 01
#00908: 02
#01508: 03
#05608: 03
#05008: 04
#TIL00: ""
#VOLUME: ""
#HISPEED 00
#MEASUREHS 00
#00314:14
#00310:41
#00418:14
#00512:14
#0061a:14
#01614:14
#01718:14
#02618:0016
#02612:26
#02610:41
#02712:16
#02718:0016
#03018:16
#03012:0016
#03118:16
#03112:0016
#03412:16
#03418:0016
#03512:16
#03518:0016
#06018:14
#06010:41
#06114:14
#06212:14
#07118:14
#07214:14
#07318:14
#07414:14
#07518:2616
#0751f:21
#07612:1616
#07610:41
#07912:1616
#08018:1616
#08718:0014
#08712:24
#08814:14
#0881a:0014
#08914:14
#08918:0014
#09012:14
#0911a:14
#09114:0014
#09218:14
#09212:0014
#09518:0014
#09514:24
#09612:14
#0961a:0014
#09714:1414
#09818:1414
#0651f:11
#00118:26
#02419:24
#04212:26
#06712:26
#09912:26
#10418:26
#01510:41
#04410:41
#06252:24
#06154:64
#007340:14
#008340:24
#009380:14
#0103a0:0034
#012380:34
#0133a0:0034
#0153a0:24
#018340:14
#019320:34
#020340:34
#021320:34
#022340:24
#024390:14
#025390:24
#028320:1636
#029320:26
#032380:16
#033380:26
#036320:1636
#037320:26
#038380:16
#039360:36
#040380:36
#041380:26
#0443a0:14
#0453a0:24
#046340:14
#047340:24
#048380:14
#049380:24
#050340:14
#051320:0034
#053340:34
#054320:0034
#056340:34
#057340:24
#061340:14
#062320:54
#063340:24
#064380:14
#065380:24
#067320:16
#070320:26
#077380:16
#078380:26
#081320:16
#082320:26
#083380:16
#084360:36
#085380:36
#086380:26
#0933a0:14
#0943a0:24
#099320:16
#100340:36
#101320:36
#102320:26
