This file was generated by Ched 2.7.0.0.
#TITLE ""
#ARTIST ""
#DESIGNER ""
#DIFFICULTY 0
#PLAYLEVEL
#SONGID ""
#WAVE ""
#WAVEOFFSET 0
#JACKET ""
#REQUEST "ticks_per_beat 480"
#00002: 4
#BPM01: 112
#00008: 01
#TIL00: ""
#VOLUME: ""
#HISPEED 00
#MEASUREHS 00
#0011a:14
#0021a:14
#00312:14
#00412:14
#00614:14
#0091a:14
#00910:41
#01012:14
#01118:14
#01214:14
#01718:2616
#01710:41
#03718:14
#03818:14
#03914:14
#04014:14
#00518:14
#00718:14
#00814:14
#0131a:14
#01412:14
#01518:14
#01614:14
#01818:0016
#01812:16
#02112:2616
#02212:0016
#02218:16
#02412:0016
#0271a:14
#02812:14
#02918:14
#02910:41
#03014:14
#0311a:14
#03212:14
#04212:1616
#04210:41
#04318:16
#04312:0016
#04118:2616
#0411f:21
#04618:1616
#04512:2616
#04818:0016
#02518:16
#02612:14
#04912:16
#04910:41
#05018:14
#05114:14
#0521a:14
#0551a:14
#05512:0014
#05618:14
#05614:0014
#0571a:14
#0571a:14
#0331f:11
#02310:41
#019320:1626
#020380:1626
#023380:16
#023360:0036
#024380:26
#033380:14
#0343a0:24
#035340:14
#036320:24
#044380:1626
#047320:16
#047340:0036
#048320:26
#053320:14
#054340:3424
