This file was generated by Ched 2.7.0.0.
#TITLE ""
#ARTIST ""
#DESIGNER ""
#DIFFICULTY 0
#PLAYLEVEL
#SONGID ""
#WAVE ""
#WAVEOFFSET 0
#JACKET ""
#REQUEST "ticks_per_beat 480"
#00002: 4
#BPM01: 130
#00008: 01
#TIL00: ""
#VOLUME: ""
#HISPEED 00
#MEASUREHS 00
#00914:14
#00910:41
#01014:14
#01118:14
#01218:14
#01312:14
#0131a:0014
#01414:14
#01418:0014
#01912:14
#02118:14
#02314:14
#02518:2616
#02510:41
#02712:1616
#02918:16
#02912:0016
#03018:16
#03012:0016
#03118:1616
#03212:1616
#04118:14
#04110:41
#04218:14
#04314:14
#04414:14
#0451a:14
#04512:0014
#04618:14
#04614:0014
#05312:14
#05318:0014
#0551a:14
#05514:0014
#05718:0016
#05712:26
#0571f:21
#05812:16
#05818:0016
#05810:41
#06118:0014
#06112:24
#06214:14
#0621a:0014
#0491f:11
#04912:26
#0171a:24
#01710:41
#05118:26
#06312:26
#06418:26
#00614:34
#00514:0034
#00818:34
#00718:0034
#03310:41
#001320:1434
#002320:3424
#0033a0:1434
#0043a0:3424
#005340:1434
#006340:34
#006320:0024
#007380:1434
#008380:34
#0083a0:0024
#015320:14
#016320:3424
#0183a0:1424
#020320:1424
#022380:1424
#024340:1424
#026380:1626
#028320:1626
#0333a0:14
#034380:34
#0353a0:34
#036380:24
#037320:14
#038340:34
#039320:34
#040340:24
#0473a0:14
#0483a0:3424
#049320:16
#050320:0026
#051380:16
#052380:0026
#054320:1424
#0563a0:1424
#059320:1626
#060380:1626
#064380:16363626
