This file was generated by Ched 2.7.0.0.
#TITLE ""
#ARTIST ""
#DESIGNER ""
#DIFFICULTY 0
#PLAYLEVEL
#SONGID ""
#WAVE ""
#WAVEOFFSET 0
#JACKET ""
#REQUEST "ticks_per_beat 480"
#00002: 4
#BPM01: 88
#00008: 01
#TIL00: ""
#VOLUME: ""
#HISPEED 00
#MEASUREHS 00
#00918:14
#01014:14
#01118:14
#01312:14
#01418:14
#01518:14
#01614:14
#01714:14
#0181a:14
#01810:41
#0191a:14
#02812:2616
#0281f:21
#02810:00410000
#02918:1616
#03012:16
#03018:0016
#03218:2616
#03312:1616
#03418:16
#03412:0016
#03612:16
#03618:0016
#03610:41
#03812:0016
#03818:26
#03918:1616
#03912:00160000
#0231f:0011
#02319:34
#02310:41
#01212:24
#01210:41
#02013:0034
#02113:34
#02219:0034
#02619:0034
#02719:34
#02413:0034
#02513:34
#00510:41
#04412:00000000000000000000000000560000
#0013a0:14
#0023a0:24
#003340:14
#004340:24
#005380:14
#006380:24
#007320:14
#008320:24
#020340:14
#020330:0034
#021330:34
#021320:0024
#022380:14
#022390:0034
#023390:34
#0233a0:0024
#024320:14
#024330:0034
#025330:34
#025340:0024
#0263a0:14
#026390:0034
#027390:34
#027380:0024
#031320:1626
#035380:1626
#037320:1626
#040330:1400000000000000340000000000000000340000000000000000340000000000
#041330:00000000003400000000000000000000000000000000000034000000000000000000340000000000000000003400000000000000000000000000000000000000
#042330:34000034
#044320:00000000000000000000000000260000
