This file was generated by Ched 2.7.0.0.
#TITLE ""
#ARTIST ""
#DESIGNER ""
#DIFFICULTY 0
#PLAYLEVEL
#SONGID ""
#WAVE ""
#WAVEOFFSET 0
#JACKET ""
#REQUEST "ticks_per_beat 480"
#00002: 4
#BPM01: 254
#BPM02: 164
#00008: 01
#08708: 01
#08308: 02
#TIL00: ""
#VOLUME: ""
#HISPEED 00
#MEASUREHS 00
#00612:14
#00712:14
#00818:14
#00918:14
#01014:14
#01114:14
#0121a:14
#0131a:14
#01814:14
#01810:41
#01918:14
#02012:14
#0211a:14
#02214:14
#02318:14
#02412:14
#0251a:14
#03412:14
#03418:0014
#03410:41
#03512:14
#0361a:14
#03614:0014
#0371a:14
#03814:14
#03818:0014
#03912:14
#04018:14
#04014:0014
#0411a:14
#04818:0016
#04812:26
#04810:41
#04912:16
#04918:0016
#05012:16
#05018:0016
#05212:0016
#05218:26
#05318:16
#05312:0016
#05418:16
#05412:0016
#05612:14
#0601a:14
#05818:1414
#05914:1414
#06214:1414
#06318:1414
#0661a:14
#06712:14
#06718:0014
#06710:41
#06814:14
#0691a:14
#06914:0014
#07018:14
#07114:14
#07118:0014
#07212:14
#07318:14
#07314:0014
#0741a:14
#07612:14
#0771a:14
#07814:14
#08314:14
#08318:0014
#0831f:11
#08412:14
#0841a:0014
#08514:14
#08518:0014
#08612:14
#09014:14
#09118:14
#09612:2616
#0961f:21
#09718:1616
#09710:41
#09812:16
#09818:0016
#10018:2616
#10112:1616
#10218:16
#10212:0016
#10412:16
#10413:0014
#10618:14
#10614:0014
#1071a:14
#10712:0014
#10818:16
#10819:0014
#11014:14
#11018:0014
#11112:14
#1111a:0014
#11213:0016
#11212:26
#1141a:14
#11414:0014
#11410:41
#11518:14
#11612:14
#11618:0014
#11714:14
#1181a:14
#11812:0014
#11918:14
#11914:0014
#00418:26
#00412:0026
#00518:26
#08812:26
#08918:26
#09213:24
#09219:24
#09412:24
#09416:0024
#0951a:24
#12412:0026
#12418:00000026
#05652:64
#0605a:54
#10452:66
#10453:0024
#10858:56
#10859:0024
#11252:66
#11253:0026
#005380:1626
#014340:14
#015320:24
#016380:14
#0173a0:24
#026340:14
#027320:34
#028340:34
#029320:24
#030380:14
#0313a0:34
#032380:34
#0333a0:24
#042320:14
#043320:24
#0443a0:14
#045380:34
#0463a0:34
#047380:24
#051320:1626
#055380:1626
#056320:14
#057340:24
#0603a0:14
#061380:24
#064320:14
#065320:24
#079380:14
#0803a0:34
#081380:34
#0823a0:24
#0863a0:0014
#0873a0:24
#092390:14
#093390:24
#092331:14
#093331:24
#099321:1626
#103381:1626
#104321:16
#104331:0054
#105321:26
#108381:16
#108391:0054
#109381:26
#112321:16
#112331:0056
#113321:26
#1203a1:14
#1213a1:34
#122381:34
#1233a1:34
#124381:24
