This file was generated by Ched 2.7.0.0.
#TITLE ""
#ARTIST ""
#DESIGNER ""
#DIFFICULTY 0
#PLAYLEVEL
#SONGID ""
#WAVE ""
#WAVEOFFSET 0
#JACKET ""
#REQUEST "ticks_per_beat 480"
#00002: 4
#BPM01: 151
#00008: 01
#TIL00: "73'0:1, 71'0:10000"
#VOLUME: ""
#HISPEED 00
#MEASUREHS 00
#00813:00130013
#00812:0012
#0081a:14
#00816:24
#00810:41
#0091a:00140014
#00916:0014001400000000
#00912:1414
#00917:0000000000140000
#00915:0000000000000014
#00913:0054000000000000000000000000000000000000000000000000000000000000000000000000000000000000000000000000000000000000000000000000000000540000000000000000000000000000000000000000000000000000000000000000000000000000000000000000000000000000000000000000000000000000
#00914:00540000000000000000000000000000000000000000000000000000000000000054000000000000000000000000000000000000000000000000000000000000
#00919:0000000000000000000000000000000000000000000000000000000000000000005400000000000000000000000000000000000000000000000000000000000000000000000000000000000000000000000000000000000000000000000000000054000000000000000000000000000000000000000000000000000000000000
#00918:00000000000000000000000000000000005400000000000000000000000000000000000000000000000000000000000000540000000000000000000000000000
#01012:1400000000000014
#01016:00151400
#0101b:00130000
#01014:00000014
#01218:00130000000000001400000000000000
#01214:0014000000000000
#0121a:00000013000024000000000000000000
#01216:0000140000140014
#01215:00000000000000130000000000000000
#01213:00000000000000000013000000000000
#01212:2400000000000024
#01116:0014
#0111a:00140000
#01118:00000014
#01117:00130000000013000000000000000000
#01112:0000000000130000
#0111b:0000000000000013
#0131a:0014340000141400
#01316:0013002400001400
#01314:00130000
#01312:0000001400000000
#01412:24142414
#01416:2400001300000013
#0141a:00241424
#01417:0000000000130000
#0151a:1424140000000000
#01512:2414240013000000
#01515:0000001300130013
#01518:00000000000000130000000013000013
#0151b:00000000000000000013000000000000
#0161a:14120000
#0161b:0000000000120000
#01613:00000012
#01615:00000000000000000000000000000012
#01617:0000000000121200
#01616:0000001200000000
#01618:00000000000000120000000000000000
#01614:0012
#01612:24
#01610:41
#01817:1200121200120012
#01815:00000012
#0181a:2400000000000024
#01812:0000002400000000
#01919:0012000022000000
#01915:00000000120000000000000012000013
#01917:0000001200120000
#01913:0012000012000000
#01918:0000000000000013
#0201a:24130013
#02016:0000001400140000
#02013:0013
#02012:13000000000000000000000000000000000000000000000000000000000000000053000000000000000000000000000000000000000000000000000000000000
#02015:0000000000000013
#02018:00000000000000000000000000000013
#0201b:00000000000000000000000000000000005300000000000000000000000000000000000000000000000000000000000000530000000000000000000000000000
#01717:00121212
#01719:12
#01715:12
#01713:00120000
#0171b:0000001200120000
#01712:00000024
#02113:00130013
#02116:0000001400140000
#0211a:0013
#0211b:13000000000000000000000000000000000000000000000000000000000000000053000000000000000000000000000000000000000000000000000000000000
#02112:14000000000000000000000000000000005300000000000000000000000000000000000000000000000000000000000000530000000000000000000000000000
#0221a:14000013
#02218:00000000130000000000000000000013
#02215:0000001300000000
#02219:00000000000000000000000000000000005300000000000000000000000000001300000000000000000000000000000000000000000000000000000000000000
#02216:0000000000130000
#02212:14000000000000000000000000000000130000000000000000000000000000000053000000000000000000000000000000000000000000000000000000000000
#02213:0013
#02214:00000013
#0221b:00000000000000000000000000000000000000000000000000000000000000000000000000000000000000000000000000530000000000000000000000000000
#02312:13130000
#0231b:00131300
#02316:0000001400000000
#02317:00000013
#02318:13
#02319:0000000000130013
#02314:0000000000220022
#02413:0000000000120000
#0241b:00000012
#02419:00000000000000000000000000000012
#02417:0000000000121200
#02412:14
#02414:00120000
#02418:0000001200000000
#02416:00000000000000120000000000000000
#0241a:2412
#02410:41
#02515:12
#0251b:00120000
#02517:00121212
#02513:0000001200120000
#02519:12
#0251a:00000024
#02617:1200121200120012
#02619:00000012
#02612:2400000000000024
#0261a:0000002400000000
#02715:0012000022000013
#02718:00000000000000000000000000000013
#02719:00120012
#02717:0000001200120000
#0271b:0012000012000000
#02816:0014130000001300
#02812:2400001414000000
#02817:0013
#0281a:0000000000141400
#0281b:13
#02818:00000000000000000000000000000000000000000000000000000000000000000053000000000000000000000000000000000000000000001300000000000000
#02815:00000000000000000000000000000000005300000000000000000000000000000000000000000000000000000000000000530000000000000000000013000000
#03116:0014
#03114:00000014
#03115:0013000000000000
#03112:00130000
#03118:0000161300002400
#03113:00000000000000130000000000000000
#0311a:0024
#02917:00130013
#0291a:1400001414000000
#02916:0014000013000013
#02912:1300000000141400
#02918:00000000000000000000000000000000005300000000000000000000000000000000000000000000000000000000000000530000000000000000000013000000
#02915:00000000000000000000000000000000000000000000000000000000000000000053000000000000000000000000000000000000000000000000000000000000
#0301a:13
#03013:0000001300000000
#0301b:0000000000130013
#03014:00130000
#03016:00000014000000000000140000000000
#03018:0000002600001300
#03012:2600000000000026
#03718:0000000000001313
#03715:00000000000000000000130000130000
#03714:0012001200000000
#03712:00121200
#0371b:0000000000130000
#03716:53535300
#0381b:13000000000000000000131300000000
#03818:00001313000000000000000000000000
#03816:0000001400000014
#03812:24252627
#03918:00001313000000000000000013000000
#0391b:0000001300000000
#03919:0000000000130000
#03917:0000000000000013
#0391a:0013
#03912:28272625
#04016:13
#0401b:0000130013000023
#04012:2400130013000023
#04018:0000001300130000
#04015:00000000000000130000000013000000
#04114:0000001300000000
#0411b:00000013
#04117:00000000000000130000000000000000
#04116:00000000000000000013000000000000
#04119:0000000000130014
#04112:00000000240000000000000013000026
#04113:0000000000000014
#04115:0023000000000000
#0411a:00240000
#04118:00000000000000000000000000000026
#0411f:00000000000000000000000000000021
#04616:1300130000000013
#04613:0013001300000000
#04615:00000000000000130000000000000000
#04617:0013
#0461a:00000000140014140000000000001400
#04619:2500000000150000
#04717:13130000
#0471a:0013001300000000
#04718:00000000000000130000000000000000
#04716:0013
#04712:25000000140014140000150000000000
#04715:00000000000000000000000000001313
#04816:0014000000000000
#04819:0000000000000015
#0481a:00140000
#04812:0000000000000000140000000000000000130000000000000000000025000000
#04818:2600001300130000
#04815:00000000000000130000000000000000
#0481b:0013
#04918:00001300130000000000000013000026
#04915:00000013000000000000130000000000
#04912:00000000000015000000000000000026
#04919:0000002500000014
#04913:0000000000000014
#0531a:0000000000000000140000000000000000000014000000000000000000001300
#05315:0000000000130013
#05312:00001300000013130000000014000000
#05316:00000000130000130000000000000000
#05418:1400002500000000
#05417:0000000000530015
#05412:0000130000000025
#05414:0000001400000000
#0541b:0000000000130000
#05413:25
#05410:41
#05415:0000000000000000000000000000000000000000000000000000000000000000000000000000000000000000000000000000000000000000000000000000000000000000000000000000000000000000005300000000000000000000000000000000000000000000000000000000000000000000000000000000000000000000
#05416:00530000
#0551a:14
#05512:0013000014002500
#05518:0000000000130000
#05514:0000001500000000
#05519:0053002500002500
#05517:0000000000000000000000000000000000530000000000000000000000000000000000000000000000000000000000000000000000000000000000000000000000000000000000000000000000000000000000000000000000000000000000000000000000000000000000000000000000000000000000000000000000000000
#05515:0000000000530000
#05715:0000000000000013
#05718:00000000000015000000000000000013
#0571b:0013000000530000
#05717:14
#05712:0000000000132500
#05716:0053000014000000
#05719:00000025
#05713:0000002500000000
#05714:0000000000000000000000000000000000530000000000000000000000000000000000000000000000000000000000000000000000000000000000000000000000000000000000000000000000000000000000000000000000000000000000000000000000000000000000000000000000000000000000000000000000000000
#05818:0013132600001316
#05815:00000013000000000000540000000000
#0581b:1300000000130000
#05812:2600001600000026
#05817:0015
#05813:0000000000000000000000000000000000000000000000000000000000000000000000000000000000000000000000000000000000000000000000000000000000000000000000000000000000000000005400000000000000000000000000000000000000000000000000000000000000000000000000000000000000000000
#06012:14000000130000000013000013000000
#0601a:14
#06017:0013000000000000
#0601b:0000131300001300
#06015:00000000000000130000000000000013
#06018:0000000000130013
#0701b:13
#07012:13
#06815:00130013
#06818:00001300000000000000000000130000
#0681b:0000000000130000
#06812:0000002400130024
#0681a:2400000000000024
#06816:2400002400000000
#06618:00130000000000001600000000000000
#06612:2416180000000024
#0661a:00000013000024000000000000000000
#06615:00000000000000130000000000000000
#06613:00000000000000000013000000000000
#06616:0000000000180014
#06716:0013002400001414
#06714:00130000
#0671a:0000000000141400
#06712:0000001400000000
#06212:24131213
#0621a:14
#06215:0015
#06210:41
#06313:0014000000000000
#0631a:0014001400140000
#06312:0000001400140014
#06316:14545454
#06314:0000000000000000000000000000000000000000000000000000000000000054000000000000000000000000000000000000000000000000000000000000000000540000000000000000000000000000000000000000000000000000000000540000000000000000000000000000000000000000000000000000000000000000
#06318:0000000000000000000000000000000000000000000000000000000000000000005400000000000000000000000000000000000000000000000000000000005400000000000000000000000000000000000000000000000000000000000000000054000000000000000000000000000000000000000000000000000000000000
#0641a:00000000140000000000001400000000
#06416:1400000054000054
#06412:00140014
#06414:0000000000000000000000000000000000000000000000000000000000000000000000000000000000000000000000000000000000000000000000000000005400000000000000000000000000000000000000000000000000000000000000000000000000000000000000000000000000540000000000000000000000000000
#06418:0000000000000000000000000000000000000000000000000000000000000000000000000000000000000000000000000000000000000000000000000000000000540000000000000000000000000000000000000000000000000000000000000000000000000000000000000000005400000000000000000000000000000000
#06512:00140000000014000000140000001400
#0651a:0014000000140014
#06519:0000001400000000
#06516:00145454
#06518:0000000000000000000000000000000000000000000000000000000000000000000000000000000000000000000000000000000000000000000000000000005400000000000000000000000000000000000000000000000000000000000000000054000000000000000000000000000000000000000000000000000000000000
#06514:0000000000000000000000000000000000000000000000000000000000000000000000000000000000000000000000000000000000000000000000000000000000540000000000000000000000000000000000000000000000000000000000540000000000000000000000000000000000000000000000000000000000000000
#04517:00000000130000130000000000001300
#04512:0000000000000000140000000000000000000014000000000000000014000000
#0451b:00001300000013130000000000000000
#04518:0000000000130000
#0451a:00000014
#04212:0000001300000000000000001600160000000000000000001400000000000000
#0421b:00001300000000130000130000001313
#04218:00130000
#04217:00000000000000000000130013000013
#04318:00001300000000000000000000000016
#0431b:00130000
#04316:00000000140000140000000014000000
#04312:00000000000013130000130000001313
#04310:00410000
#04412:00001300000013130000130000000016
#04416:00000000130000130000000000000000
#0441a:00140000
#04414:00000013
#04419:00000013
#0441b:00000000000000000000000000001313
#0501b:0000001300000000000000000000000000000000000000000000000000000000
#05012:00001300000000130000130000001313
#05015:00130000
#05018:00000000000016160000000000000000
#0501a:00000014
#05016:00000000000000000000130013000013
#05115:0013000000000000
#05112:00000000130000000000000000000016
#05116:00000000140000140000000014000000
#0511b:00000000000013130000130000001313
#05218:00000000000000000000000000000016
#05217:00000000130000130000000000000000
#0521b:00001300000013130000130000000000
#05212:00000000140000000000000000001313
#05219:00000013
#05214:00000013
#05614:15
#05612:0013002500130000
#0561b:00131300
#05617:0000000000000000000000000000000000000000000000000000000000000000000000000000000000000000000000001500000000000000000000000000000000000000000000000000000000000000005300000000000000000000000000000000000000000000000000000000000000000000000000000000000000000000
#05613:0000000000000015
#05619:2500000000530000
#05618:0000000000000025
#05616:00530000
#05912:0013001600552600
#05914:15
#05919:0000000000150000
#05918:0000002616002600
#05917:0054000000000000
#0591a:0000000000000000000000000000000000540000000000000000000000000000000000000000000000000000000000000000000000000000000000000000000000000000000000000000000000000000000000000000000000000000000000000000000000000000000000000000000000000000000000000000000000000000
#0321c:0000001212001200
#0321a:0000000000000012
#03212:14
#0321f:11
#03216:24
#03217:00535353
#0331a:0012001200000000
#0331c:00120000
#0331b:0013
#03315:00000013
#03318:00000053
#03317:53535300
#03412:5300001200000012
#03414:00001212
#03416:13535353
#03519:0013000000000000
#03516:53131400
#03513:0000001300000000
#0351b:0000001300000000
#03518:00000014
#03514:12000024
#03512:0024
#03612:0000001212001200
#03614:0000000000000012
#0361a:14
#03616:24535353
#00712:0000002c
#06112:23
#0611b:2362
#0611a:0000000000000000000000000000000000620000000000000000000000000000
#06119:00000000000000000062000000000000
#06118:0000000000000000000000000000000000000062000000000000000000000000
#06117:0000000000620000
#06116:0000000000000000000000000000000000000000006200000000000000000000
#06115:00000000000000000000006200000000
#06114:0000000000000000000000000000000000000000000000620000000000000000
#06113:00000062
#00017:0052000000000052
#00019:00520000
#00013:0000000000520000
#00015:52000052
#0001b:0000005200000000
#0011b:0052000000000000
#00119:00520000
#00117:0000005200520000
#00115:00000052
#00113:0000000000000052
#0021b:0052000000520000
#00219:00520000
#00217:0000005200005200
#00213:0000000000520052
#00317:5200000000520000
#0031b:00520000
#00319:0052
#00315:00000052
#00313:00520000
#00619:00000052
#00617:0000005200000052
#00613:0052000000520000
#00615:00520000
#0061b:0000000000520000
#00417:0052000000000052
#00415:00520000
#0041b:0000000000520000
#00419:52000052
#00413:0000005200000000
#00513:0052000000000000
#00515:00520000
#00517:0000005200520000
#00519:00000052
#0051b:0000000000000052
#07312:5c
#07116:007400000000000000000000000000000000000000000000000000000000000000000000000000000000000000000000000000000000000000000000000000000000000000000000000000000000000000000000000000000000000000000000000000000000000000000000000000000000000000000000000000000000000000000000000000000000000000000000000000000000000000000000000000000000000000000000000000000000000000000000000000000000000000000000000000000000000000000000000000000000000000000000000000000000000000000000000000000000000000000000000000000000000000000000000000000000000000000000000000000000000000000000000000000000000000000000000000000000000000000000000000000000000000000000000000000000000000000000000000000000000000000000000000000000000000000000000000000000000000000000000000000000000000000000000000000000000000000000000000000000000000000000000000000000000000000000000000000000000000000000000000000000000000000000000000000000000000000000000000000000000000000000000000000000000000000000000000000000000000000000000000000000000000000000000000000000000000000000000000000000000000000000000000000000000000000000000000000000000000000000000000000000000000000000000000000000000000000000000000000000000000000000000000000000000000000000000000000000000000000000000000000000000000000000000000000000000000000000000000000000000000000000000000000000000000000000000000000000000000000000000000000000000000000000000000000000000000000000000000000000000000000000000000000000000000000000000000000000000000000000000000000000000000000000000000000000000000000000000000000000000000000000000000000000000000000000000000000000000000000000000000000000000000000000000000000000000000000000000000000000000000000000000000000000000000000000000000000000000000000000000000000000000000000000000000000000000000000000000000000000000000000000000000000000000000000000000000000000000000000000000000000000000000000000000000000000000000000000000000000000000000000000000000000000000000000000000000000000000000000000000000000000000000000000000000000000000000000000000000000000000000000000000000000000000000000000000000000000000000000000000000000000000000000000000000000000000000000000000000000000000000000000000000000000000000000000000000000000000000000000000000000000000000000000000000000000000000000000000000000000000000000000000000000000000000000000000000000000000000000000000000000000000000000000000000000000000000000000000000000000000000000000000000000000000000000000000000000000000000000000000000000000000000000000000000000000000000000000000000000000000000000000000000000000000000000000000000000000000000000000000000000000000000000000000000000000000000000000000000000000000000000000000000000000000000000000000000000000000000000000000000000000000000000000000000000000000000000000000000000000000000000000000000000000000000000000000000000000000000000000000000000000000000000000000000000000000000000000000000000000000000000000000000000000000000000000000000000000000000000000000000000000000000000000000000000000000000000000000000000000000000000000000000000000000000000000000000000000000000000000000000000000000000000000000000000000000000000000000000000000000000000000000000000000000000000000000000000000000000000000000000000000000000000000000000000000000000000000000000000000000000000000000000000000000000000000000000000000000000000000000000000000000000000000000000000000000000000000000000000000000000000000000000000000000000000000000000000000000000000000000000000000000000000000000000000000000000000000000000000000000000000000000000000000000000000000000000000000000000000000000000000000000000000000000000000000000000000000000000000000000000000000000000000000000000000000000000000000000000000000000000000000000000000000000000000000000000000000000000000000000000000000000000000000000000000000000000000000000000000000000000000000000000000000000000000000000000000000000000000000000000000000000000000000000000000000000000000000000000000000
#00752:0000001c
#00954:00640000000000000000000000000000000000000000000000000000000000000064000000000000000000000000000000000000000000000000000000000000
#00956:1424002400000000
#00958:00000000000000000000000000000000005400000000000000000000000000000000000000000000000000000000000000540000000000000000000000000000
#00952:00340035
#0095a:0044
#00957:0000000000240000
#00955:0000000000000024
#01058:46
#01056:00256400
#01052:6400000000000064
#01059:0000000000000015
#01158:00000064
#01156:0064
#0115a:00644400
#01157:00230000000023000000000000000000
#0115b:0000000000000023
#01152:0000340000230000
#01154:00000014
#01256:0000340000440054
#01252:0000000000000034
#0135a:0024000000005400
#01356:0000001400005400
#01352:0000006400000000
#01452:1434
#01456:14
#0145a:00440044
#01652:34
#01752:00000034
#01757:00000052
#0185a:4400000000000044
#01852:0000003400000000
#01857:5200005200000000
#0205a:44
#02052:53
#0215b:63
#02152:34
#02657:6200006200000000
#02652:3400000000000034
#0265a:0000004400000000
#0285b:63
#02852:34
#02856:0024000000000000
#0245a:44
#0255a:00000044
#02557:00000062
#02952:53
#02956:0024000000000000
#0295a:44
#03052:3600000000000036
#03058:0000004600000000
#03056:00000024000000000000240000000000
#0305a:53
#03053:0000005300000000
#03158:00460000
#03852:34
#03856:0000004400000044
#04052:34
#0405b:0000000000000053
#04659:4500000000450000
#04652:0000000000350000
#04657:0023
#04653:0000002300000000
#04656:00530000
#04655:00000000000000530000000000000000
#04757:00630000
#0475a:0000002300000000
#04758:00000000000000630000000000000000
#04756:0023
#04752:3500000000350000
#04759:0000000000450000
#04858:4600000000130000
#04852:0000000000000000000000000000000000230000000000000000000035000000
#04855:00000000000000530000130000000000
#04959:0000004500000000
#04952:00000000000000000000000000000036
#04958:00000000000000000000000000000056
#05453:35
#05458:5400004500000000
#05457:0000000000000055
#05452:0000000000000035
#05454:0000006400000000
#0555a:24
#05552:00002415
#05559:0000004500001500
#05554:0000006500000000
#05752:00000015
#05759:00000015
#05757:24
#05758:0000005500000000
#05756:0024
#05753:0000003500000000
#05852:3600005600000036
#05858:0000004600000066
#05857:0025
#05952:0000005600003600
#05958:0000004626004600
#05954:25
#07052:23
#0705b:23
#06652:0000380000000034
#06656:0000000000480054
#0685a:1400000000000054
#06856:1400001400000000
#06852:0000001400000054
#0625a:54
#06255:0025
#06252:34
#06358:0000000000000000000000000000000000000000000000000000000000000000005400000000000000000000000000000000000000000000000000000000000000000000000000000000000000000000000000000000000000000000000000000054000000000000000000000000000000000000000000000000000000000000
#06354:0000000000000000000000000000000000000000000000000000000000000000000000000000000000000000000000000000000000000000000000000000000000540000000000000000000000000000000000000000000000000000000000000000000000000000000000000000000000000000000000000000000000000000
#06352:0000000000240000
#0635a:0000002400000000
#06353:0024000000000000
#06356:54
#06452:00240000
#06456:54
#06454:0000000000000000000000000000000000000000000000000000000000000000000000000000000000000000000000000000000000000000000000000000000000000000000000000000000000000000000000000000000000000000000000000000000000000000000000000000000000540000000000000000000000000000
#06458:0000000000000000000000000000000000000000000000000000000000000000000000000000000000000000000000000000000000000000000000000000000000540000000000000000000000000000000000000000000000000000000000000000000000000000000000000000000000000000000000000000000000000000
#0645a:00000000000000000000002400000000
#06552:00240000000000000000240000000000
#06559:0000002400000000
#0655a:0000000000000024
#06556:00640000
#06554:0000000000000000000000000000000000000000000000000000000000000000000000000000000000000000000000000000000000000000000000000000000000640000000000000000000000000000000000000000000000000000000000000000000000000000000000000000000000000000000000000000000000000000
#06558:0000000000000000000000000000000000000000000000000000000000000000000000000000000000000000000000000000000000000000000000000000000000000000000000000000000000000000000000000000000000000000000000000064000000000000000000000000000000000000000000000000000000000000
#02254:00000013
#06152:53
#04252:0000002300000000000000000000560000000000000000002400000000000000
#04257:00000000000000000000530000000053
#04356:00000000000000540000000000000000
#04358:00000000000000000000000000000056
#0435b:00000013
#04452:00000000000000000000000000000066
#04456:00000000000000230000000000000000
#04557:00000000000000530000000000000000
#04552:0000000000000000000000000000000000000024000000000000000000000000
#04158:00000000000000000000000000000046
#04152:00000000140000000000000000000066
#0415a:00140000
#0505b:0000002300000000000000000000000000000000000000000000000000000000
#05058:00000000000000660000000000000000
#0505a:00000024
#05056:00000000000000000000630000000063
#05156:00000000000000640000000000000000
#05152:00000000000000000000000013000066
#05258:00000000000000000000000000000056
#05257:00000000000000230000000000000000
#05654:65
#05652:0023003500000000
#05659:45
#05657:0000005500000000
#0565b:0023
#05653:0000000000000065
#05658:0000000000000045
#00856:34
#0085a:24
#05356:00000000000000630000000000000000
#0535a:0000000000000000000000000000000000000024000000000000000000000000
#0365a:64
#03656:34
#0335b:0053
#03355:00000053
#03252:54
#03256:44
#03552:0034
#03554:00000034
#03452:13
#06756:0000004400000024
#06752:0000005400000000
#0675a:00000054
#006370:0000000000000012
#007320:0000002c
#0083a0:14
#009360:24
#009340:00140000000000000000000000000000000000000000000000000000000000000000000000000000000000000000000000000000000000000000000000000000
#009360:0054000000000000
#009320:00240000
#009380:00000000000000000000000000000000001400000000000000000000000000000000000000000000000000000000000000000000000000000000000000000000
#009360:0000005400000000
#0093a0:0024
#009340:00000000000000000000000000000000000000000000000000000000000000000014000000000000000000000000000000000000000000000000000000000000
#009370:0000000000540000
#009320:00000025
#009380:00000000000000000000000000000000000000000000000000000000000000000000000000000000000000000000000000140000000000000000000000000000
#009350:0000000000000054
#010380:26
#010321:1424
#010361:00550000
#010360:0014
#010390:0000000000000025
#010321:0000000000000014
#011371:00530000000000000000000000000000
#011321:00240000
#0113a0:00142400
#011370:0000005300000000
#011361:0014
#011321:0000000000530000
#011341:00000024
#011380:00000014
#0113b0:0000000000000053
#012360:24
#012360:0000000000000014
#0133a0:0034340000000000
#013360:0000002400000000
#013321:0000001400000000
#013361:0000000000343400
#014321:24
#0133a0:00000014
#014360:24
#017370:00000012
#0183a0:24
#018371:12
#018321:0000002400000000
#018370:0000001200000000
#0183a0:0000000000000024
#020320:13
#020360:00240000
#0213b0:13
#021360:00240000
#025370:00000012
#026320:24
#026371:12
#0263a1:0000002400000000
#026370:0000001200000000
#026320:0000000000000024
#0283b0:13
#028360:0054000000000000
#0283a0:00240000
#029320:13240000
#029360:0054000000000000
#0303a0:13
#030360:00000054000000000000000000000000
#030380:0000002600000000
#030331:0000001300000000
#030361:0000000000540000
#030321:0000000000000026
#0403b1:0000000000000013
#041381:0023000000000000
#041321:00000000000000000000000000000016
#042321:0000005300000000260000000000000000000000000000000000000000000000
#042321:00000000000000160000000054000000
#042371:0000000000330023
#042371:00000000000000000000000000000013
#043321:0025000000000000
#043361:00000000000000140000000000000000
#0433b1:00000023
#043381:00000000000000000000000000000016
#044361:0023000000000000
#044361:00000000000000130000000000000000
#044381:0000000000260000
#044321:00000000000000000000000000000016
#045371:0023000000000000
#045371:00000000000000130000000000000000
#045321:0000000000000000000000000000000000000054000000000000000000000000
#045351:00000025
#046361:00130000
#046331:0000005300000000
#046351:00000000000000330000000000000000
#046371:0053
#046321:0000000000250000
#047371:00130000
#0473a1:0000005300000000
#047381:00000000000000330000000000000000
#047361:0053
#047391:0000000000250000
#048351:00000000000000130000230000000000
#048321:0000000000000000000000000000000000530000000000000000000000000000
#049381:00000000000000000000000000000016
#0503b1:0000005300000000000000000000000000000000000000000000000000000000
#050381:00260000
#050381:00000000000000160000000000000000
#050361:0000000000330023
#0503a1:00000054
#050361:00000000000000000000000000000013
#051391:0025000000000000
#051361:00000000000000140000000000000000
#051321:00000023
#051321:00000000000000000000000000000016
#052371:0023000000000000
#052371:00000000000000130000000000000000
#052321:0000000000260000
#052381:00000000000000000000000000000016
#053361:0023000000000000
#053361:00000000000000130000000025000000
#0533a1:0000000000000000000000000000000000000054000000000000000000000000
#054381:14
#054361:00230000
#054341:0000001400000000
#054371:0000000000230000
#054371:0000000000000015
#0553a1:54
#055391:0023000000000000
#055341:0000001500000000
#055321:0054
#055351:0000000000230000
#056341:15
#056321:0053000000000000
#056361:00230000
#056371:0000001500000000
#0563b1:0053
#056391:0000000000230000
#056331:0000000000000015
#057371:54
#057361:0023000000000000
#057381:0000001500000000
#057361:0054
#0573b1:0000000000230000
#058321:0000001600000000
#058371:0055
#058351:0000000000240000
#058381:0000000000000016
#059341:55
#059371:0024000000000000
#059321:0000001600250000
#059381:0056
#061321:13
#0613b1:0022
#0623a1:14
#062351:0055
#0633a1:24
#063360:14
#063330:0054000000000000
#063340:0000000000000000000000000000000000000000000000000000000000000024000000000000000000000000000000000000000000000000000000000000000000000000000000000000000000000000000000000000000000000000000000000000000000000000000000000000000000000000000000000000000000000000
#063380:0000000000000000000000000000000000000000000000000000000000000000001400000000000000000000000000000000000000000000000000000000002400000000000000000000000000000000000000000000000000000000000000000000000000000000000000000000000000000000000000000000000000000000
#0633a0:0000005400000000
#063340:0000000000000000000000000000000000000000000000000000000000000000000000000000000000000000000000000000000000000000000000000000000000140000000000000000000000000000000000000000000000000000000000240000000000000000000000000000000000000000000000000000000000000000
#063320:0000000000540000
#063380:0000000000000000000000000000000000000000000000000000000000000000000000000000000000000000000000000000000000000000000000000000000000000000000000000000000000000000000000000000000000000000000000000014000000000000000000000000000000000000000000000000000000000000
#0643a0:24
#064361:14
#064321:00540000
#064341:0000000000000000000000000000000000000000000000000000000000000000000000000000000000000000000000000000000000000000000000000000002400000000000000000000000000000000000000000000000000000000000000000000000000000000000000000000000000000000000000000000000000000000
#064381:0000000000000000000000000000000000000000000000000000000000000000000000000000000000000000000000000000000000000000000000000000000000140000000000000000000000000000000000000000000000000000000000000000000000000000000000000000002400000000000000000000000000000000
#0643a1:00000000000000000000005400000000
#064341:0000000000000000000000000000000000000000000000000000000000000000000000000000000000000000000000000000000000000000000000000000000000000000000000000000000000000000000000000000000000000000000000000000000000000000000000000000000000140000000000000000000000000000
#065321:00540000240000000000000000000000
#065360:00140000
#065390:0000005400000000
#065380:0000000000000000000000000000000000000000000000000000000000000000000000000000000000000000000000000000000000000000000000000000002400000000000000000000000000000000000000000000000000000000000000000000000000000000000000000000000000000000000000000000000000000000
#065340:0000000000000000000000000000000000000000000000000000000000000000000000000000000000000000000000000000000000000000000000000000000000140000000000000000000000000000000000000000000000000000000000240000000000000000000000000000000000000000000000000000000000000000
#065320:0000000000540000
#065380:0000000000000000000000000000000000000000000000000000000000000000000000000000000000000000000000000000000000000000000000000000000000000000000000000000000000000000000000000000000000000000000000000014000000000000000000000000000000000000000000000000000000000000
#0653a0:0000000000000054
#066360:24
#066360:0000000000000014
#0673a0:0024000000000000
#067320:0000001400000000
#067360:0000000000240000
#0673a0:00000014
#067360:0000000000000054
#0683a0:24
#0683a0:0000000000000014
#0703b0:53
#070360:000000000000000000000000000000000000000000000000000000000000000000000000000000000000000000000000000000000000000000000000000000000000000000000000000000000000000000000000000000000000000000000000000000000000000000000000000000000000000000000000000000000000000000000000000000000000000000000000000000000000000000000000000000000000000000000000000000000000000000000000000000000000000000000000000000000000000000000000000000000000000000000000000000000000000000000000000000000000000000000000000000000000000000000000000000000000000000000000000000000000000000000000000000000000000000000000000000000000000000000000000000000000000000000000000000000000000000000000000000000000000000000000000000000000000000000000000000000000000000000000000000000000000000000000000000000000000000000000000000000000000000000000000000000000000000000000000000000000000000000000000000000000000000000000000000000000000000000000000000000000000000000000000000000000000000000000000000000000000000000000000000000000000000000000000000000000000000000000000000000000000000000000000000000000000000000000000000000000000000000000000000000000000000000000000000000000000000000000000000000000000000000000000000000000000000000000000000000000000000000000000000000000000000000000000000000000000000000000000000000000000000000000000000000000000000000000000000000000000000000000000000000000000000000000000000000000000000000000000000000000000000000000000000000000000000000000000000000000000000000000000000000000000000000000000000000000000000000000000000000000000000000000000000000000000000000000000000000000000000000000000000000000000000000000000000000000000000000000000000000000000000000000000000000000000000000000000000000000000000000000000000000000000000000000000000000000000000000000000000000000000000000000000000000000000000000000000000000000000000000000000000000000000000000000000000000000000000000000000000000000000000000000000000000000000000000000000000000000000000000000000000000000000000000000000000000000000000000000000000000000000000000000000000000000000000000000000000000000000000000000000000000000000000000000000000000000000000000000000000000000000000000000000000000000000000000000000000000000000000000000000000000000000000000000000000000000000000000000000000000000000000000000000000000000000000000000000000000000000000000000000000000000000000000000000000000000000000000000000000000000000000000000000000000000000000000000000000000000000000000000000000000000000000000000000000000000000000000000000000000000000000000000000000000000000000000000000000000000000000000000000000000000000000000000000000000000000000000000000000000000000000000000000000000000000000000000000000000000000000000000000000000000000000000000000000000000000000000000000000000000000000000000000000000000000000000000000000000000000000000000000000000000000000000000000000000000000000000000000000000000000000000000000000000000000000000000000000000000000000000000000000000000000000000000000000000000000000000000000000000000000000000000000000000000000000000000000000000000000000000000000000000000000000000000000000000000000000000000000000000000000000000000000000000000000000000000000000000000000000000000000000000000000000000000000000000000000000000000000000000000000000000000000000000000000000000000000000000000000000000000000000000000000000000000000000000000000000000000000000000000000000000000000000000000000000000000000000000000000000000000000000000000000000000000000000000000000000000000000000000000000000000000000000000000000000000000000000000000000000000000000000000000000000000000000000000000000000000000000000000000000000000000000000000000000000000000000000000000000000000000000000000000000000000000000000000000000000000000000000000000000000000000000000000000000000000000000000000000000000000000000000000000000000000000000000000000000000000000000000000000000000000000000000000000000000000000000000000000000000000054
#071360:000000000000000000000000000000000000000000000000000000000000000000000000000000000000000000000000000000000000000000000000000000000000000000000000000000000000000000000000000000000000000000000000000000000000000000000000000000000000000000000000000000000000000000000000000000000000000000000000000000000000000000000000000000000000000000000000000000000000000000000000000000000000000000000000000000000000000000000000000000000000000000000000000000000000000000000000000000000000000000000000000000000000000000000000000000000000000000000000000000000000000000000000000000000000000000000000000000000000000000000000000000000000000000000000000000000000000000000000000000000000000000000000000000000000000000000000000000000000000000000000000000000000000000000000000000000000000000000000000000000000000000000000000000000000000000000000000000000000000000000000000000000000000000000000000000000000000000000000000000000000000000000000000000000000000000000000000000000000000000000000000000000000000000000000000000000000000000000000000000000000000000000000000000000000000000000000000000000000000000000000000000000000000000000000000000000000000000000000000000000000000000000000000000000000000000000000000000000000000000000000000000000000000000000000000000000000000000000000000000000000000000000000000000000000000000000000000000000000000000000000000000000000000000000000000000000000000000000000000000000000000000000000000000000000000000000000000000000000000000000000000000000000000000000000000000000000000000000000000000000000000000000000000000000000000000000000000000000000000000000000000000000000000000000000000000000000000000000000000000000000000000000000000000000000000000000000000000000000000000000000000000000000000000000000000000000000000000000000000000000000000000000000000000000000000000000000000000000000000000000000000000000000000000000000000000000000000000000000000000000000000000000000000000000000000000000000000000000000000000000000000000000000000000000000000000000000000000000000000000000000000000000000000000000000000000000000000000000000000000000000000000000000000000000000000000000000000000000000000000000000000000000000000000000000000000000000000000000000000000000000000000000000000000000000000000000000000000000000000000000000000000000000000000000000000000000000000000000000000000000000000000000000000000000000000000000000000000000000000000000000000000000000000000000000000000000000000000000000000000000000000000000000000000000000000000000000000000000000000000000000000000000000000000000000000000000000000000000000000000000000000000000000000000000000000000000000000000000000000000000000000000000000000000000000000000000000000000000000000000000000000000000000000000000000000000000000000000000000000000000000000000000000000000000000000000000000000000000000000000000000000000000000000000000000000000000000000000000000000000000000000000000000000000000000000000000000000000000000000000000054350000000000000000000000000000000000000000000000000000000000000000000000000000000000000000000000000000000000000000000000555400000000000000000000000000000000000000000000000000000000000000000000000000000000000000000000000000000000000000000054000000000000000000000000000000000000000000000000000000000000000000000000000000000000000000000000000000000000000000000000005400000000000000000000000000000000000000000000000000000000000000000000000000000000000000000000000000000000000000000054350000000000000000000000000000000000000000000000000000000000000000000000000000000000000000000000000000000000000000000000555400000000000000000000000000000000000000000000000000000000000000000000000000000000000000000000000000000000000000000054000000000000000000000000000000000000000000000000000000000000000000000000000000000000000000000000000000000000000000000000005400000000000000000000000000000000000000000000000000000000000000000000000000000000000000000000000000000000000000000054
#071350:0000000000000000000000000000000000000000000000000000355500003555
#072360:360000000000000000000000000000000000000000000000000000000000000000000000000000000000000000000000000000000000000000000000565400000000000000000000000000000000000000000000000000000000000000000000000000000000000000000000000000000000000000000054000000000000000000000000000000000000000000000000000000000000000000000000000000000000000000000000000000000000000000000000005400000000000000000000000000000000000000000000000000000000000000000000000000000000000000000000000000000000000000000054360000000000000000000000000000000000000000000000000000000000000000000000000000000000000000000000000000000000000000000000565400000000000000000000000000000000000000000000000000000000000000000000000000000000000000000000000000000000000000000054000000000000000000000000000000000000000000000000000000000000000000000000000000000000000000000000000000000000000000000000005400000000000000000000000000000000000000000000000000000000000000000000000000000000000000000000000000000000000000000054370000000000000000000000000000000000000000000000000000000000000000000000000000000000000000000000000000000000000000000000575400000000000000000000000000000000000000000000000000000000000000000000000000000000000000000000000000000000000000000054000000000000000000000000000000000000000000000000000000000000000000000000000000000000000000000000000000000000000000000000005400000000000000000000000000000000000000000000000000000000000000000000000000000000000000000000000000000000000000000054370000000000000000000000000000000000000000000000000000000000000000000000000000000000000000000000000000000000000000000000575400000000000000000000000000000000000000000000000000000000000000000000000000000000000000000000000000000000000000000054000000000000000000000000000000000000000000000000000000000000000000000000000000000000000000000000000000000000000000000000005400000000000000000000000000000000000000000000000000000000000000000000000000000000000000000000000000000000000000000054380000000000000000000000000000000000000000000000000000000000000000000000000000000000000000000000000000000000000000000000585400000000000000000000000000000000000000000000000000000000000000000000000000000000000000000000000000000000000000000054000000000000000000000000000000000000000000000000000000000000000000000000000000000000000000000000000000000000000000000000005400000000000000000000000000000000000000000000000000000000000000000000000000000000000000000000000000000000000000000054380000000000000000000000000000000000000000000000000000000000000000000000000000000000000000000000000000000000000000000000585400000000000000000000000000000000000000000000000000000000000000000000000000000000000000000000000000000000000000000054000000000000000000000000000000000000000000000000000000000000000000000000000000000000000000000000000000000000000000000000005400000000000000000000000000000000000000000000000000000000000000000000000000000000000000000000000000000000000000000054380000000000000000000000000000000000000000000000000000000000580000000000000000000000000000000000000000000000000000000000580000000000000000000000000000000000000000000000000000000000580000000000000000000000000000000000000000000000000000000000380000000000000000000000000000000000000000000000000000000000580000000000000000000000000000000000000000000000000000000000580000000000000000000000000000000000000000000000000000000000580000000000000000000000000000000000000000000000000000000000380000000000000000000000000000000000000000000000000000000000380000000000000000000000000000000000000000000000000000000000380000000000000000000000000000000000000000000000000000000000380000000000000000000000000000000000000000000000000000000000380000000000000000000000000000000000000000000000000000000000380000000000000000000000000000000000000000000000000000000000380000000000000000000000000000000000000000000000000000000000380000000000000000000000000000000000000000000000000000000000
#072340:0000365600003656000000000000000000000000000000000000000000000000
#072330:0000000000000000000037570000375700000000000000000000000000000000
#072320:0000000000000000000000000000000000000000000000000000000000000000000000000000000000000000000000000000000000000000000000000000000000000000000000003800000058000000000000000000000038000000580000000058005700580058005800580058005800380038003800380038003800380038
#073320:2c
#068321:0000000000000014
#070321:53
#071361:542400000000000000000000000000000000000000000000000000000000000000000000000000000000000000000000000000000000000000000000000000000000000000000000000000000000000000000000000000000000000000000000000000000000000000000000000000000000000000000000000000000000000000000000000000000000000000000000000000000000000000000000000000000000000000000000000000000000000000000000000000000000000000000000000000000000000000000000000000000000000000000000000000000000000000000000000000000000000000000000000000000000000000000000000000000000000000000000000000000000000000000000000000000000000000000000000000000000000000000000000000000000000000000000000000000000000000000000000000000000000000000000000000000000000000000000000000000000000000000000000000000000000000000000000000000000000000000000000000000000000000000000000000000000000000000000000000000000000000000000000000000000000000000000000000000000000000000000000000000000000000000000000000000000000000000000000000000000000000000000000000000000000000000000000000000000000000000000000000000000000000000000000000000000000000000000000000000000000000000000000000000000000000000000000000000000000000000000000000000000000000000000000000000000000000000000000000000000000000000000000000000000000000000000000000000000000000000000000000000000000000000000000000000000000000000000000000000000000000000000000000000000000000000000000000000000000000000000000000000000000000000000000000000000000000000000000000000000000000000000000000000000000000000000000000000000000000000000000000000000000000000000000000000000000000000000000000000000000000000000000000000000000000000000000000000000000000000000000000000000000000000000000000000000000000000000000000000000000000000000000000000000000000000000000000000000000000000000000000000000000000000000000000000000000000000000000000000000000000000000000000000000000000000000000000000000000000000000000000000000000000000000000000000000000000000000000000000000000000000000000000000000000000000000000000000000000000000000000000000000000000000000000000000000000000000000000000000000000000000000000000000000000000000000000000000000000000000000000000000000000000000000000000000000000000000000000000000000000000000000000000000000000000000000000000000000000000000000000000000000000000000000000000000000000000000000000000000000000000000000000000000000000000000000000000000000000000000000000000000000000000000000000000000000000000000000000000000000000000000000000000000000000000000000000000000000000000000000000000000000000000000000000000000000000000000000000000000000000000000000000000000000000000000000000000000000000000000000000000000000000000000000000000000000000000000000000000000000000000000000000000000000000000000000000000000000000000000000000000000000000000000000000000000000000000000000000000000000000000000000000000000000000000000000000000000000000000000000000000000000000000000000000000000000000000000000000000000000000000000000000000000000000000000000000000000000000000000000000000000000000000000000000000000000000000000000000000000000000000000000000000000000000000000000000000000000000000000000000000000000000000000000000000000000000000000000000000000000000000000000000000000000000000000000000000000000000000000000000000000000000000000000000000000000000000000000000000000000000000000000000000000000000000000000000000000000000000000000000000000000000000000000000000000000000000000000000000000000000000000000000000000000000000000000000000000000000000000000000000000000000000000000000000000000000000000000000000000000000000000000000000000000000000000000000000000000000000000000000000000000000000000000000000000000000000000000000000000000000000000000000000000000000000000000000000000000000000000000000000000000000000000000000000000000000000000000000000000000000000000000000000000000000000000000000000000000000000000000000000000000000000000000000000000000000000000000000000000000000000000000
#0009b0:0000001200000000
#0019b0:000000000000000000000000000000000000000000000000000000000000000000000000000000000000000000000000000000000000000000000052220000000000000000000000000000000000000000000000000000000000000000000000000000000000000000000000000000000000000000000000000000000000000000000000000000000000000000000000000000000000000000000000000000000000000000000000000000000000000000000000000000000000000000000000000000000000000000000000000000000000000000000000000000000000000000000000000000000000000000000000000000000000000000000000000000000000000000000000000000000000000000000000000000000000000000000000000000000000000000000000000000000000000000000000000000000000000000000000000000000000000000000000000000000000000000000000000000000000000000000000000000000000000000000000000000000000000000000000000000000000000000000000000000000000000000000000000000000000000000000000000000000000000000000000000000000000000000000000000000000000000000000000000000000000000000000000000000000000000000000000
#000971:0000000000000012
#001971:000000000000000000000000000000000000000000000000000000000000000000000000000000000000000000000000000000000000000000000000000000000000000000000000000000000000000000000000000000000000000000000000000000000000000000000000000000000000000000000000000000000000000000000000000000000000000000000000000000000000000000000000000000000000000000000000000000000000000000000000000000000000000000000000000000000000000000000000000000000000000000000000000000000000000000000000000000000000000000000000000000000000000000000000000000000000000000000000000000000000000000000000000000000000000000000000000000000000000000000052220000000000000000000000000000000000000000000000000000000000000000000000000000000000000000000000000000000000000000000000000000000000000000000000000000000000000000000000000000000000000000000000000000000000000000000000000000000000000000000000000000000000000000000000000000000000000000000000000000000000000000000000000000000000000000000000000000000000000000000000
#001931:0000000000000012
#002931:000000000000000000000000000000000000000000000000000000000000000000000000000000000000000000000000000000000000000000000000000000000000000000000000000000000000000000000000000000000000000000000000000000000000000000000000000000000000000000000000000000000000000000000000000000000000000000000000000000000000000000000000000000000000000000000000000000000000000000000000000000000000000000000000000000000000000000000000000000000000000000000000000000000000000000000000000000000000000000000000000000000000000000000000000000000000000000000000000000000000000000000000000000000000000000000000000000000000000000000052220000000000000000000000000000000000000000000000000000000000000000000000000000000000000000000000000000000000000000000000000000000000000000000000000000000000000000000000000000000000000000000000000000000000000000000000000000000000000000000000000000000000000000000000000000000000000000000000000000000000000000000000000000000000000000000000000000000000000000000000
#004931:0000001200000000
#005931:000000000000000000000000000000000000000000000000000000000000000000000000000000000000000000000000000000000000000000000052220000000000000000000000000000000000000000000000000000000000000000000000000000000000000000000000000000000000000000000000000000000000000000000000000000000000000000000000000000000000000000000000000000000000000000000000000000000000000000000000000000000000000000000000000000000000000000000000000000000000000000000000000000000000000000000000000000000000000000000000000000000000000000000000000000000000000000000000000000000000000000000000000000000000000000000000000000000000000000000000000000000000000000000000000000000000000000000000000000000000000000000000000000000000000000000000000000000000000000000000000000000000000000000000000000000000000000000000000000000000000000000000000000000000000000000000000000000000000000000000000000000000000000000000000000000000000000000000000000000000000000000000000000000000000000000000000000000000000000000000
#004970:0000000000000012
#005970:000000000000000000000000000000000000000000000000000000000000000000000000000000000000000000000000000000000000000000000000000000000000000000000000000000000000000000000000000000000000000000000000000000000000000000000000000000000000000000000000000000000000000000000000000000000000000000000000000000000000000000000000000000000000000000000000000000000000000000000000000000000000000000000000000000000000000000000000000000000000000000000000000000000000000000000000000000000000000000000000000000000000000000000000000000000000000000000000000000000000000000000000000000000000000000000000000000000000000000000052220000000000000000000000000000000000000000000000000000000000000000000000000000000000000000000000000000000000000000000000000000000000000000000000000000000000000000000000000000000000000000000000000000000000000000000000000000000000000000000000000000000000000000000000000000000000000000000000000000000000000000000000000000000000000000000000000000000000000000000000
#0059b0:0000000000000012
#0069b0:000000000000000000000000000000000000000000000000000000000000000000000000000000000000000000000000000000000000000000000000000000000000000000000000000000000000000000000000000000000000000000000000000000000000000000000000000000000000000000000000000000000000000000000000000000000000000000000000000000000000000000000000000000000000000000000000000000000000000000000000000000000000000000000000000000000000000000000000000000000000000000000000000000000000000000000000000000000000000000000000000000000000000000000000000000000000000000000000000000000000000000000000000000000000000000000000000000000000000000000052220000000000000000000000000000000000000000000000000000000000000000000000000000000000000000000000000000000000000000000000000000000000000000000000000000000000000000000000000000000000000000000000000000000000000000000000000000000000000000000000000000000000000000000000000000000000000000000000000000000000000000000000000000000000000000000000000000000000000000000000
#032920:14
#032970:00000000530000005353535353000000
#032960:0000000000000000000000000000000000530053005300530000000000000000
#033970:530000000000000000000000000000000000000000000000000000000000000000000000000000000000000000000000000000000000000000000000000000000000000000000000000000000000000000000000000000000000000000000000000000000000000000000000000000000000000000000000530000000000000000000000000000000000000000000000000000000000000000000000000000000000000000000000000000000000000000000000000000000000000000000000000000000000000000000000000000000000000000000000000000000000000000000000000000000000000000000000530000000000000000000000000000000000000000000000000000000000000000000000000000000000000000000000000000000000000000000000000000000000000000000000000000000000000000000000000000000000000000000000000000000000000000000000000000000000000000000000530000000000000000000000000000000000000000000000000000000000000000000000000000000000000000000000000000000000000000000000000000000000000000000000000000000000000000000000000000000000000000000000000000000000000000000000000000000000000000000000530000000000000000000000000000000000000000000000000000000000000000000000000000000000000000000000000000000000000000000000000000000000000000000000000000000000000000000000000000000000000000000000000000000000000000000000000000000000000000000000000000000000000000000000000000000000000000000000000000000000000000000000000000000000000000000000000000000000000000000000000000000000000000000000000000000000000000000000000000000000000000000000000000000000000000000000000000000000000000000000000000000000000000000000000000000000000000000000000000000000000000000000000000000000000000000000000000000000000000000000000000000000000000000000000000000000000000000000000000000000000000000000000000000000000000000000000000000000000000000000000000000000000000000000000000000000000000000000000000000000000000000000000000000000000000000000000000000000000000000000000000000000000000000000000000000000000000000000000000000000000000000000000000000000000000535353535353535353535353535353230000000000000000000000000000000000000000000000000000000000000000000000000000000000000000000000000000000000000000000000000000000000000000000000000000000000000000000000000000000000000000000000000000000000000000000000000000000000000000000000000000000000000000000000000000000000000000000000000000000000000000000000000000000000000000000000000000000000000000000000000000000000000000000000000000000000000000000000000000000000000000000000000000000000000000000000000000000000000000000000000000000000000000000000000000000000000000000000000000000000000000000000000000000000000000000000000000000000000000000000000000000000000000000000000000000000000000000000000000000000000000000000000000000000000000000000000000000000000000000000000000000000000000000000000000000000000000000000000000000000000000000000000000000000000000000000000000000000000000000000000000000000000000000000000000000000000000000000000000000000000000000000000000000000000000000000000000000000000000000000000000000000000000000000000000000000000000000000000000000000000000000000000000000000000000000000000000000000000000000000000000000000000000000000000000000000000000000000000000000000000000000000000000000000000000000000000000000000000000000000000000000000000000000000000000000000000000000000000000000000000000000000000000000000000000000000000000000000000000000000000000000000000000000000000000000000000000000000000000000000000000000000000000000000000000000000000000000000000000000000000000000000000000000000000000000000000000000000000000000000000000000000000000000000000000000000000000000000000000000000000000000000000000000000000000000000000000000000000000000000000000000000000000000000000000000000000000000000000000000000000000000000000000000000000000000000000000000000000000000000000000000000000000000000000000000000000000000000000000000000000000000000000000000000000000000000000000000000000000000000000000000000000000000000000000000000000000000000000000000000
#033960:0053005300530053000000000000000000000000000000000000000000000000
#0339b1:0013
#033981:000000000000000000000000000000000000000000000000000000000000000000000000000000000000000000000000000000000000000000000000000000000000000000000000000000000000000000000000000000000000000000000000000000000000000000000000000000000000000000000000000000000000000000000000000000000000000000000000000000000000000000000000000000000000000000000000000000000000000000000000000000000000000000000000000000000000000000000000000000000000000000000000000000000000000000000000000000000000000000000000000000000000000000000000000000000000000000000000000000000000000000000000000000000000000000000000000000000000000000000000000000000000000000000000000000000000000000000000000000000000000000000000000000000000000000000000000000000000000000000000000000000000000000000000000000000000000000000000000000000000000000000000000000000000000000000000000000000000000000000000000000000000000000000000000000000000000000000000000000000000000000000000000000000000000000000000000000000000000000000000000000000000000000000000000000000000000000000000000000000000000000000000000000000000000000000000000000000000000000000000000000000000000000000000000000000000000000000000000000000000000000000000000000000000000000000000000000000000000000000000000000000000000000000000000000000000000000000000000000000000000000000000000000000000000000000000000000000000000000000000000000000000000000000000000000000000000000000000000000000000000000000000000000000000000000000000000000000000000000000000000000000000000000000000000000000000000000000000000000000000000000000000000000000000000000000000000000000000000000000000000000000000000000000000000000000000000000000000000000000000000000000000000000000000000000000000000000000000000000000000000000000000000000000000000000000000000000000000000000000000000000000000000000000000000000000000000000000000000000000000000000000000000000000000000000000000000000000000000000000000000000000000000000000000000000000000000000000000000000000000000000000000000000000000000000000000000000000000000000000000000000000000000000000000000000000000000000000000000000000000000000000000000000000000000000000000000000000000000000000000000000000000000000000000000000000000000000000000000000000000000000000000000000000000000000000000000000000000000000000000000000000000000000000000000000000000000000000000000000000000000000000000000000000000000000000000000000000000000000000000000000000000000000000000000000000000000000000000000000000000000000000000000000000000000000000000000000000000000000000000000000000000000000000000000000000000000000000000000000000000000000000000000000000000000000000000000000000000000000000000000000000000000000000000000000000000000000000000000000000000000000000000000000000000000000000000000000000000000000000000000000000000000000000000000000000000000000000000000000000000000000000000000000000000000000000000000000000000000000000000000000000000000000000000000000000000000000000000000000005353230000000000000000000000000000000000000000000000000000000000000000000000000000000000000000000000000000000000000000000000000000000000000000000000000000000000000000000000000000000000000000000000000000000000000000000000000000000000000000000000000000000000000000000000000000000000000000000000000000000000000000000000000000000000000000000000000000000000000000000000000000000000000000000000000000000000000000000000000000000000000000000000000000000000000000000000000000000000000000000000000000000000000000000000000000000000000000000000000000000000000000000000000000000000000000000000000000000000000000000000000000000000000000000000000000000000000000000000000000000000000000000000000000000000000000000000000000000000000000000000000000000000000000000000000000000000000000000000000000000000000000000000000000000000000000000000000000000000000000000000000000000000000000000000000000000000000000000000000000000000000000000000000000000000000000000000000000000000000000000000
#033950:00000013
#033920:000000000000000000000000000000000000000000000000000000000000000000000000000000000000000000000000000000000000000000000000000000000000000000000000000000000000000000000000000000000000000000000000000000000000000000000000000000000000000000000000000000000000000000000000000000000000000000000000000000000000000000000000000000000000000000000000000000000000000000000000000000000000000000000000000000000000000000000000000000000000000000000000000000000000000000000000000000000000000000000000000000000000000000000000000000000000000000000000000000000000000000000000000000000000000000000000000000000000000000000000000000000000000000000000000000000000000000000000000000000000000000000000000000000000000000000000000000000000000000000000000000000000000000000000000000000000000000000000000000000000000000000000000000000000000000000000000000000000000000000000000000000000000000000000000000000000000000000000000000000000000000000000000000000000000000000000000000000000000000000000000000000000000000000000000000000000000000000000000000000000000000000000000000000000000000000000000000000000000000000000000000000000000000000000000000000000000000000000000000000000000000000000000000000000000000000000000000000000000000000000000000000000000000000000000000000000000000000000000000000000000000000000000000000000000000000000000000000000000000000000000000000000000000000000000000000000000000000000000000000000000000000000000000000000000000000000000000000000000000000000000000000000000000000000000000000000000000000000000000000000000000000000000000000000000000000000000000000000000000000000000000000000000000000000000000000000000000000000000000000000000000000000000000000000000000000000000000000000000000000000000000000000000000000000000000000000000000000000000000000000000000000000000000000000000000000000000000000000000000000000000000000000000000000000000000000000000000000000000000000000000000000000000000000000000000000000000000000000000000000000000000000000000000000000000000000000000000000000000000000000000000000000000000000000000000000000000000000000000000000000000000000000000000000000000000000000000000000000000000000000000000000000000000000000000000000000000000000000000000000000000000000000000000000000000000000000000000000000000000000000000000000000000000000000000000000000000000000000000000000000000000000000000000000000000000000000000000000000000000000000000000000000000000000000000000000000000000000000000000000000000000000000000000000000000000000000000000000000000000000000000000000000000000000000000000000000000000000000000000000000000000000000000000000000000000000000000000000000000000000000000000000000000000000000000000000000000000000000000000000000000000000000000000000000000000000000000000000000000000000000000000000000000000000000000000000000000000000000000000000000000000000000000000000000000000000000000000000000000000000000000000000000000000000000000000000000000000000000000000000000000000000000000000000000000000000000000000000000000000000000000000000000000000000000000000000000000000000000000000000000000000000000000000000000000000000000000000000000000000000000000000000000000000000000000000000000000000000000000000000000000000000000000000000000000000000000000000000000000000000000000000000000000000000000000000000000000000000000000000000000000000000000000000000000000000000000000000000000000000000000000000000000000000000000000000000000000000000000000000000000000000000000000000000000000000000000000000000000000000000000000000000000000000000000000000000000000000000000000000000000000000000000000000000000000000000000000000000000000000000000000000000000000000000000000000000000000000000000000000000000000000000000000000000000000000000000000000000000000000000000000000000000000000000000000000000000000000000000000000000000000000000000000000000000000000000000000000000000000000000000000000000000000000000000000000000000000000000000000000005353
#034920:23
#034961:130000000000000000000000000000000000000000000000000000000000000000000000000000000000000000000000000000000000000000000000000000000000000000000000000000000000000000000000000000000000000000000000000000000000000000000000000000000000000000000000530000000000000000000000000000000000000000000000000000000000000000000000000000000000000000000000000000000000000000000000000000000000000000000000000000000000000000000000000000000000000000000000000000000000000000000000000000000000000000000000530000000000000000000000000000000000000000000000000000000000000000000000000000000000000000000000000000000000000000000000000000000000000000000000000000000000000000000000000000000000000000000000000000000000000000000000000000000000000000000000530000000000000000000000000000000000000000000000000000000000000000000000000000000000000000000000000000000000000000000000000000000000000000000000000000000000000000000000000000000000000000000000000000000000000000000000000000000000000000000000530000000000000000000000000000000000000000000000000000000000000000000000000000000000000000000000000000000000000000000000000000000000000000000000000000000000000000000000000000000000000000000000000000000000000000000000000000000000000000000000000000000000000000000000000000000000000000000000000000000000000000000000000000000000000000000000000000000000000000000000000000000000000000000000000000000000000000000000000000000000000000000000000000000000000000000000000000000000000000000000000000000000000000000000000000000000000000000000000000000000000000000000000000000000000000000000000000000000000000000000000000000000000000000000000000000000000000000000000000000000000000000000000000000000000000000000000000000000000000000000000000000000000000000000000000000000000000000000000000000000000000000000000000000000000000000000000000000000000000000000000000000000000000000000000000000000000000000000000000000000000000000000000000000000000000000000000000000000000000000000530000000000000000000000000000000000000000000000000000000000000000000000000000000000000000000000000000000000000000000000000000000000000000000000000000000000000000000000000000000000000000000000000000000000000000000000000000000000000000000000530000000000000000000000000000000000000000000000000000000000000000000000000000000000000000000000000000000000000000000000000000000000000000000000000000000000000000000000000000000000000000000000000000000000000000000000000000000000000000000000530000000000000000000000000000000000000000000000000000000000000000000000000000000000000000000000000000000000000000000000000000000000000000000000000000000000000000000000000000000000000000000000000000000000000000000000000000000000000000000000530000000000000000000000000000000000000000000000000000000000000000000000000000000000000000000000000000000000000000000000000000000000000000000000000000000000000000000000000000000000000000000000000000000000000000000000000000000000000000000000530000000000000000000000000000000000000000000000000000000000000000000000000000000000000000000000000000000000000000000000000000000000000000000000000000000000000000000000000000000000000000000000000000000000000000000000000000000000000000000000000000000000000000000000000000000000000000000000000000000000000000000000000000000000000000000000000000000000000000000000000000000000000000000000000000000000000000000000000000000000000000000000000000000000000000000000000000000000000000000000000000000000000000000000000000000000000000000000000000000000000000000000000000000000000000000000000000000000000000000000000000000000000000000000000000000000000000000000000000000000000000000000000000000000000000000000000000000000000000000000000000000000000000000000000000000000000000000000000000000000000000000000000000000000000000000000000000000000000000000000000000000000000000000000000000000000000000000000000000000000000000000000000000000000000053535353535353535353535353535353
#034971:0053005300530053000000000000000000530053005300530000000000000000
#035961:23
#0369a1:14
#036961:00000000530000005353535353000000
#036971:0000000000000000000000000000000000530053005300530000000000000000
#037961:530000000000000000000000000000000000000000000000000000000000000000000000000000000000000000000000000000000000000000000000000000000000000000000000000000000000000000000000000000000000000000000000000000000000000000000000000000000000000000000000530000000000000000000000000000000000000000000000000000000000000000000000000000000000000000000000000000000000000000000000000000000000000000000000000000000000000000000000000000000000000000000000000000000000000000000000000000000000000000000000530000000000000000000000000000000000000000000000000000000000000000000000000000000000000000000000000000000000000000000000000000000000000000000000000000000000000000000000000000000000000000000000000000000000000000000000000000000000000000000000530000000000000000000000000000000000000000000000000000000000000000000000000000000000000000000000000000000000000000000000000000000000000000000000000000000000000000000000000000000000000000000000000000000000000000000000000000000000000000000000530000000000000000000000000000000000000000000000000000000000000000000000000000000000000000000000000000000000000000000000000000000000000000000000000000000000000000000000000000000000000000000000000000000000000000000000000000000000000000000000000000000000000000000000000000000000000000000000000000000000000000000000000000000000000000000000000000000000000000000000000000000000000000000000000000000000000000000000000000000000000000000000000000000000000000000000000000000000000000000000000000000000000000000000000000000000000000000000000000000000000000000000000000000000000000000000000000000000000000000000000000000000000000000000000000000000000000000000000000000000000000000000000000000000000000000000000000000000000000000000000000000000000000000000000000000000000000000000000000000000000000000000000000000000000000000000000000000000000000000000000000000000000000000000000000000000000000000000000000000000000000000000000000000000000000005353535353535353535353535353230000000000000000000000000000000000000000000000000000000000000000000000000000000000000000000000000000000000000000000000000000000000000000000000000000000000000000000000000000000000000000000000000000000000000000000000000000000000000000000000000000000000000000000000000000000000000000000000000000000000000000000000000000000000000000000000000000000000000000000000000000000000000000000000000000000000000000000000000000000000000000000000000000000000000000000000000000000000000000000000000000000000000000000000000000000000000000000000000000000000000000000000000000000000000000000000000000000000000000000000000000000000000000000000000000000000000000000000000000000000000000000000000000000000000000000000000000000000000000000000000000000000000000000000000000000000000000000000000000000000000000000000000000000000000000000000000000000000000000000000000000000000000000000000000000000000000000000000000000000000000000000000000000000000000000000000000000000000000000000000000000000000000000000000000000000000000000000000000000000000000000000000000000000000000000000000000000000000000000000000000000000000000000000000000000000000000000000000000000000000000000000000000000000000000000000000000000000000000000000000000000000000000000000000000000000000000000000000000000000000000000000000000000000000000000000000000000000000000000000000000000000000000000000000000000000000000000000000000000000000000000000000000000000000000000000000000000000000000000000000000000000000000000000000000000000000000000000000000000000000000000000000000000000000000000000000000000000000000000000000000000000000000000000000000000000000000000000000000000000000000000000000000000000000000000000000000000000000000000000000000000000000000000000000000000000000000000000000000000000000000000000000000000000000000000000000000000000000000000000000000000000000000000000000000000000000000000000000000000000000000000000000000000000000000000000000000000000000000000000000
#037971:0053005300530053000000000000000000000000000000000000000000000000
#0619b1:0012
#061931:00000022
