This file was generated by Ched 2.7.0.0.
#TITLE ""
#ARTIST ""
#DESIGNER ""
#DIFFICULTY 0
#PLAYLEVEL
#SONGID ""
#WAVE ""
#WAVEOFFSET 0
#JACKET ""
#REQUEST "ticks_per_beat 480"
#00002: 4
#BPM01: 172
#00008: 01
#TIL00: ""
#VOLUME: ""
#HISPEED 00
#MEASUREHS 00
#0471f:11
#00612:16
#00718:16
#00812:16
#0091a:14
#01014:14
#0111a:14
#01214:14
#01318:14
#01412:14
#01518:14
#01612:14
#0171a:14
#01710:41
#0181a:14
#01912:14
#02012:14
#02118:14
#02218:14
#02314:14
#02414:14
#03312:0016
#03310:41
#03512:16
#03518:0016
#03718:1616
#03812:1616
#03918:16
#03912:0016
#04118:0016
#04112:16
#04110:41
#04318:16
#04312:0016
#04512:1616
#04618:1616
#05112:1414
#0521a:1414
#05314:1414
#05418:1414
#06318:0016
#06518:16
#06512:0016
#06510:41
#06912:16
#06918:0016
#06412:1616
#06618:1616
#07118:2616
#07318:16
#07312:0016
#07212:1616
#07418:1616
#07718:0016
#07712:26
#07710:41
#07812:16
#07818:0016
#07912:16
#07918:0016
#08012:16
#08018:0016
#08512:0016
#08518:26
#08618:16
#08612:0016
#08718:16
#08712:0016
#08818:16
#08812:0016
#00113:14
#00219:14
#0621f:0000000000000021
#06212:0000000000000026
#00418:0000000000000026
#03218:0000000000000026
#00510:41
#003330:1400000000000024
#0253a0:14
#026390:34
#027380:34
#028380:24
#029320:14
#030330:34
#031340:34
#032340:24
#034380:1626
#036320:1626
#040380:1626
#042320:1626
#044380:1626
#047320:14
#048340:3424
#0493a0:14
#050380:3424
#055320:14
#056340:34
#057320:34
#058340:24
#0593a0:14
#060380:34
#0613a0:24
#067320:1626
#068380:1626
#070320:1626
#075320:1626
#076380:1626
#081320:1626
#082380:1626
#083320:16
#083340:0036
#084320:36
#084340:0026
#089380:1626
#090320:1626
#091380:16
#091360:0036
#092380:36
#092360:0000000036000026
