This file was generated by Ched 2.7.0.0.
#TITLE ""
#ARTIST ""
#DESIGNER ""
#DIFFICULTY 0
#PLAYLEVEL
#SONGID ""
#WAVE ""
#WAVEOFFSET 0
#JACKET ""
#REQUEST "ticks_per_beat 480"
#00002: 4
#BPM01: 200
#00008: 01
#TIL00: ""
#VOLUME: ""
#HISPEED 00
#MEASUREHS 00
#00018:14
#00114:14
#00218:14
#0041a:14
#00410:41
#00514:14
#00618:14
#00712:14
#0081a:14
#00914:14
#01018:14
#01112:14
#0121a:14
#0131a:14
#01414:14
#01410:41
#01514:14
#02018:14
#02118:14
#02212:14
#02312:14
#0281a:14
#02814:0014
#0291a:14
#03012:14
#03018:0014
#03112:14
#0321a:14
#03214:0014
#0331a:14
#03412:14
#03418:0014
#03512:14
#03612:0016
#03618:26
#0361f:21
#03812:16
#03818:0016
#03912:16
#03918:0016
#04212:16
#04218:0016
#04412:0016
#04418:26
#04612:16
#04618:0016
#04712:16
#04718:0016
#05012:1616
#05112:16
#05218:1616
#05318:16
#05418:0016
#05412:26
#05618:16
#05612:0016
#05718:16
#05712:0016
#06018:16
#06012:0016
#06218:0016
#06212:26
#06418:16
#06412:0016
#06518:16
#06512:0016
#06818:1616
#06918:16
#07012:2616
#07010:41
#07112:16
#07218:2616
#07318:16
#07412:14
#07518:14
#07614:14
#0771a:14
#07812:14
#07918:14
#08014:14
#0811a:14
#0241f:11
#08212:26
#03710:41
#04810:41
#05810:41
#003340:14342400
#016380:14
#017380:24
#018320:14
#019320:24
#0243a0:14
#0253a0:24
#026340:14
#027340:24
#037380:1626
#040320:1626
#041380:1626
#043320:1626
#045380:1626
#048320:1626
#049380:1626
#055320:1626
#058380:1626
#059320:1626
#061380:1626
#063320:1626
#066380:1626
#067320:1626
