This file was generated by Ched 2.7.0.0.
#TITLE ""
#ARTIST ""
#DESIGNER ""
#DIFFICULTY 0
#PLAYLEVEL
#SONGID ""
#WAVE ""
#WAVEOFFSET 0
#JACKET ""
#REQUEST "ticks_per_beat 480"
#00002: 4
#BPM01: 155
#00008: 01
#TIL00: ""
#VOLUME: ""
#HISPEED 00
#MEASUREHS 00
#0271f:11
#0271a:14
#02712:24
#00512:0000131300000000
#0051a:14
#00516:0000001400000000
#0051b:0000000000130000
#00518:00000013
#00515:0000000000000013
#00412:25001314
#00417:00000013
#00416:00130000
#0041a:00140000
#00419:25
#00410:41
#00612:1313
#0061b:1313
#00618:0013001300000013
#00615:00130013
#00717:00130000000000000000000000000000
#00712:2414000013000000
#0071a:0000241400000000
#00716:00000000001300002400000000000000
#0071b:00000013
#00715:0000000000000013
#00718:00000000000000000000000000000013
#0091b:0000131300000000
#00912:1400000000130000
#00916:0000001400000000
#00915:00000013
#00918:0000000000000013
#0081a:00000014
#00816:00000013
#0081b:0013
#00817:00130000
#00812:26140000
#0101b:1313
#01012:1313
#01018:00130000
#01015:0013001300000000
#01212:1400000000130000
#0121a:14
#01218:00000013
#01215:0000000000000013
#01210:41
#0131a:14
#01312:14
#01318:00000013
#01315:0000000000000013
#01412:13
#0141b:1313
#01415:00130013
#01418:0000001300130000
#0151b:13
#01518:0000000000130000
#01515:00000000000000000000001300001300
#0161a:14
#01612:14
#01615:0000000000130000
#01618:00000000000000000000001300001300
#01712:1300001300000000
#01715:0013000000130013
#01718:00130013
#0171b:1300001300000000
#01815:0014000000000000
#0181a:1400001400000000
#01816:00000000000000340034003454000000
#01813:000000000054000000000000000000000000000000000000
#01814:005400000000
#01819:00000000000000000000000000000054
#01818:0000000000000054
#01817:00000000000000000000000000540000
#01812:00540000
#0211b:0013130000002300
#02118:1313
#02115:0000001300130013
#02112:00230013
#02012:25230013
#02015:0000000013000013
#0201b:00130023
#02019:25
#02010:41
#02218:1300000000130000
#0221b:00130023
#02212:00230013
#02215:0013
#02318:0014140014140014
#02315:1300001300001300
#02312:00230000
#0231b:00000023
#0241b:0013000000002300
#02418:00131300
#02415:0000001300130000
#02412:2600230000000013
#0251b:0013130000002323
#02515:0000001300000000
#02518:0013
#02512:0000230000001313
#0261b:00000000000000130000000000000000
#02618:0013000000000000
#02612:00000000000000130000000000000000
#02615:0013000000000000
#0341b:13000013
#03412:13000014
#03416:000000000000000000000000000000000000000000000000000000000000000000000000000000000000000000000000000000000000000000000000000000000000000000000000000000000000000000000000000000000000000000000000000000000000000000000000000000000000000000000000000000000000000000000000000000000000000000000000000000000000000000000000000000000000000000000000000000000000000000000000000000000000000000000000000000000000000000000000000000000000000000000000000000000000000000000000000000000000000000000000000000000000000000000000000000000000000000000000000000000000000000000000000000000000000000000000000000000000000000000000000000000000000000000000000000000000000000000000000000000000000000000000000000000000000000000000000000000000000000000000000000000000000000000000000000000000000000000000000000000000000000000000000000000000000000000000000000000000000000000000000000000000000000000000000000000000000000000000000000000000000000000000000000000000000000000000000000000000000000000000001300000000000000000000000000000000000000000000000000000000000000000000000000000000000000000000000000000000000000000000000000000000000000000000000000000000000000000000000000000000000000000000000000000000000000000000000000000000000000000000000000000000000000000000000000000000000000000000000000000000000000000000000000000000000000000000000000000000000000000000000000000000000000000000000000000000000000000000000000000000000000000000000000000000000000000000000000000000000000000000000000000000000000000000000000000000000000000000000000000000000000000000000000000000000000000000000000000000000000000000000000000000000000000000000000000000000000000000000000000000000000000000000000000000000000000000000000000000000000000000000000000000000000000000000000000000000000000000000000000000000000000000000000000000000000000000000000000000000000000000000000000000000000000000000000000000000000000000000000000000000000000000000000000000000000000000000000000000000000000000000000000000000000000000000000000000000000000000000000000000000000000000000000000000000000000000000000000000000000000000000000000000000000000000000000000000000000000000000000000000000000000000000000000000000000000000000000000000000000000000000000000000000000000000000000000000000000000000000000000000000000000000000000000000000000000000000000000000000000000000000000000000000000000000000000000000000000000000000000000000000000000000000000000000000000000000000000000000000000000000000000000000000000000000000000000000000000000000000000000000000000000000000000000000000000000000000000000000000000000000000000000000000000000000000000000000000000000000000000000000000000000000000000000000000000000000000000000000000000000000000000000000000000000000000000000000000000000000000000000000000000000000000000000000000000000000000000000000000000000000000000000000000000000000000000000000000000000000000000000000000000000000000000000000000000000000000000000000000000000000000000000000000000000000000000000000000000000000000000000000000000000000000000000000000000000000000000000000000000000000000000000000000000000000000000000000000000000000000000000000000000000000000000000000000000000000000000000000000000000000000000000000000000000000000000000000000000000000000000000000000000000000000000000000000000000000000000000000000000000000000000000000000000000000000000000000000000000000000000000000000000000000000000000000000000000000000000000000000000000000000000000000000000000000000000000000000000000000000000000000000000000000000000000000000000000000000000000000000000000000000000000000000000000000000000000000000000000000000000000000000000000000000000000000000000000000000000000000000000000000000000000000000000000000000000000000000000000000000000000000000000000000000000000000000000000000000000000000000000000000000000000000000000000000000000000000000000000000000000000000000000000000000000000000000000000000000000000000000000000000
#03417:00130000
#0341f:0021
#03418:0026
#0351b:13
#03517:0000000000001313
#03516:00141400
#03512:0000130000000014
#03712:1300001400001300
#0371b:13
#03718:00130000
#03716:0000000000240024
#0371a:0000002400002400
#03818:0000001326000000
#03815:00000000001300130000000000000000
#0381b:13130000
#03812:24000013
#0381a:00000014
#03816:0024000000000000
#03612:0013130000130000
#0361b:0013130000000000
#03615:0000001300000013
#03610:41
#03912:13
#03916:0000140014001313
#0391a:0000000000000014
#0391b:00130000
#0411b:13
#04112:13000000000000002600001400000000
#04115:00130000
#04118:0000001300142600
#04114:0000000000000014
#0411a:00000000000000000000000000000014
#0401b:0013130000130000
#04012:0013130000000000
#04018:0000001300000013
#04218:0014262626000000
#04212:26000014002600260000000026000000
#0431a:14140000
#04312:14002426
#04318:0000000000000026
#04316:00242400
#04615:0000001300000000
#04618:00000000001300130000000000000000
#04612:24132613
#0461b:13
#04616:0024000000001400
#04512:00002413
#04516:1400130000240024
#0451a:0000001400002400
#04417:0000001300000013
#0441b:0013000000000000
#04419:00130000
#04416:0013000000130000
#04414:00130000
#04412:0000001313000000
#04410:41
#02812:14
#02818:26
#0291a:14
#02912:26
#03012:14271427
#0301a:00140014
#03017:2727
#03116:1400001424000000
#0311a:00340034340000140000000024000000
#03112:24000024
#04716:1314
#04712:0000140000000017
#04717:00000017
#0471a:14
#0471b:0013
#04916:14000054
#04917:00000000130000000000005400000000
#04912:0000001400002400
#0491a:0024
#04919:00000000000000000054000000000000
#04918:0000000000540000
#04913:00000000000000000000000000540000
#04914:0000000000000054
#04915:00000000000000000000000000000054
#04816:0000001300000013
#04812:0013000000000000
#04814:00130000
#04817:0013000000130000
#04819:00130000
#0481b:0000001313000000
#0501a:1414000000000014
#05014:00140014000000000000000000000000
#05018:0000141400000000
#05012:00000000001400140000000023000000
#05016:5428
#05112:13231400
#0511b:00001323
#05212:13231400
#0521a:14
#0521b:00001323
#05316:14
#0531b:13230000
#0531a:0014
#05312:00000023
#05412:13260000
#05415:000000000000003636363636000000000000140000000000
#0541a:00240014
#05517:14
#05512:14240016
#05518:0000260000000016
#05515:000000000000003636363636000000000000000000000000
#06012:0014260026000000
#06018:00000000160000140000000016000000
#06014:0000001400000000
#06016:28
#05914:0000000000000014
#05916:0000000000140000
#05918:13000026
#05915:0013001300000000
#05912:00130000
#0591a:00242400
#05612:14002813
#05613:0014000000000000
#05614:00140000
#05615:0000001400000013
#0561a:00000000000000140000000024000000
#05619:00000000001400000000000000000000
#05618:00000014000000000000000000000000
#05617:00140000000000000000000000000000
#05610:41
#05718:1300000000130013
#05715:0013000013000000
#05712:00130024
#0571b:00000013
#0571a:00240000
#05812:00240013
#05815:1300000013000013
#05818:0013001300000000
#0581b:00130000
#0581a:00000024
#06115:16
#06112:00000000160000001400001400000000
#06118:0000000000140000
#06114:0000000000000014
#0611a:00000000000000002400000000000014
#06116:00000024
#06218:0016151400000000
#06212:24000016000000002c00000000000000
#06213:00000000001500000000000000000000
#06214:00000000000000140000000000000000
#06419:00000015
#06412:0000240000001514
#06417:00000000000000000000000000000013
#0641a:00240000
#06512:14000000000000000000002500250025
#06519:00130000000000000000002500250025
#06514:00001400000000000024000000000000
#0651b:00000013000000000000000000000000
#06516:00140000
#06518:0024
#00312:00000024002400240000000000000000
#0031a:00000024002400240000000000000000
#00314:00240000000000000000000000000000
#00318:24
#0111a:00000024002400240000000000000000
#01112:00000024002400240000000000000000
#01118:00240000000000000000000000000000
#01114:24
#00012:24
#0001a:24
#01912:26
#0191a:54
#03312:2c23
#0011a:00000024
#00112:00000024
#03217:27
#03212:2400002600002800
#06618:0026
#06612:0026
#0671c:00520000
#0055a:54
#00556:0000001400000000
#00552:0000001300000000
#00452:35001364
#00459:45
#0045a:00540000
#00456:0014
#0065b:0053
#00852:36640000
#0085a:00000054
#0085b:0013
#00856:0014
#00952:64
#0095b:0000001300000000
#00956:0000001400000000
#01052:0063
#0105b:0053
#01256:00000014000000000000000000000000
#0125a:54
#01352:64
#01356:00000014000000000000000000000000
#01455:00000053
#0145b:53
#01552:13
#0155b:13
#00052:14
#0005a:14
#00255:16
#00752:0053
#0165a:54
#01658:00000014000000000000000000000000
#01652:64
#01654:00000014000000000000000000000000
#0175b:0000005300000000
#02052:15
#02059:15
#0205b:00530000
#02258:53
#0225b:00530000
#02452:1600000000000053
#02455:0000000000130000
#02558:0013
#02552:0000000000000053
#0255b:0000000000000053
#02658:0053000000000000
#0265b:00000000000000230000000000000000
#02652:00000000000000230000000000000000
#02655:0063000000000000
#0355b:13
#03556:14645400
#03557:0000000000000013
#03552:0000000000000014
#03452:53003654
#0345b:63
#03457:00230000
#03456:000000000000000000000000000000000000000000000000000000000000000000000000000000000000000000000000000000000000000000000000000000000000000000000000000000000000000000000000000000000000000000000000000000000000000000000000000000000000000000000000000000000000000000000000000000000000000000000000000000000000000000000000000000000000000000000000000000000000000000000000000000000000000000000000000000000000000000000000000000000000000000000000000000000000000000000000000000000000000000000000000000000000000000000000000000000000000000000000000000000000000000000000000000000000000000000000000000000000000000000000000000000000000000000000000000000000000000000000000000000000000000000000000000000000000000000000000000000000000000000000000000000000000000000000000000000000000000000000000000000000000000000000000000000000000000000000000000000000000000000000000000000000000000000000000000000000000000000000000000000000000000000000000000000000000000000000000000000000000000000000002300000000000000000000000000000000000000000000000000000000000000000000000000000000000000000000000000000000000000000000000000000000000000000000000000000000000000000000000000000000000000000000000000000000000000000000000000000000000000000000000000000000000000000000000000000000000000000000000000000000000000000000000000000000000000000000000000000000000000000000000000000000000000000000000000000000000000000000000000000000000000000000000000000000000000000000000000000000000000000000000000000000000000000000000000000000000000000000000000000000000000000000000000000000000000000000000000000000000000000000000000000000000000000000000000000000000000000000000000000000000000000000000000000000000000000000000000000000000000000000000000000000000000000000000000000000000000000000000000000000000000000000000000000000000000000000000000000000000000000000000000000000000000000000000000000000000000000000000000000000000000000000000000000000000000000000000000000000000000000000000000000000000000000000000000000000000000000000000000000000000000000000000000000000000000000000000000000000000000000000000000000000000000000000000000000000000000000000000000000000000000000000000000000000000000000000000000000000000000000000000000000000000000000000000000000000000000000000000000000000000000000000000000000000000000000000000000000000000000000000000000000000000000000000000000000000000000000000000000000000000000000000000000000000000000000000000000000000000000000000000000000000000000000000000000000000000000000000000000000000000000000000000000000000000000000000000000000000000000000000000000000000000000000000000000000000000000000000000000000000000000000000000000000000000000000000000000000000000000000000000000000000000000000000000000000000000000000000000000000000000000000000000000000000000000000000000000000000000000000000000000000000000000000000000000000000000000000000000000000000000000000000000000000000000000000000000000000000000000000000000000000000000000000000000000000000000000000000000000000000000000000000000000000000000000000000000000000000000000000000000000000000000000000000000000000000000000000000000000000000000000000000000000000000000000000000000000000000000000000000000000000000000000000000000000000000000000000000000000000000000000000000000000000000000000000000000000000000000000000000000000000000000000000000000000000000000000000000000000000000000000000000000000000000000000000000000000000000000000000000000000000000000000000000000000000000000000000000000000000000000000000000000000000000000000000000000000000000000000000000000000000000000000000000000000000000000000000000000000000000000000000000000000000000000000000000000000000000000000000000000000000000000000000000000000000000000000000000000000000000000000000000000000000000000000000000000000000000000000000000000000000000000000000000000000000000000000000000000000000000000000000000000000000000000000000000000000000000000000000000
#03458:0046
#03752:6300001400000000
#03858:0046
#0385a:00000064
#03952:13
#03956:1400540064000013
#0395a:0000000000000014
#0415b:53
#04152:0016
#04158:00000016
#04252:16000036
#04258:00000046
#04352:64000036
#04358:0000000000000046
#04356:00141400
#0435a:00640000
#04652:0036
#04656:00000054
#04556:54
#0455a:0000001400000000
#0015a:00000054
#0185a:1400005400000000
#02858:46
#02952:36
#03057:4747
#03052:00370037
#03156:54
#03257:57
#03252:3400003600003800
#03352:1c
#04752:0000540000000037
#04757:00000047
#04756:0054
#0475a:54
#04956:64
#04952:0000001400000000
#05056:0018
#0505a:0000000000000054
#05152:0064
#0525a:54
#05252:0064
#05356:64
#0535a:0054
#05452:00660000
#05455:0016
#0545a:00000044
#05558:00560000
#05555:0016
#05552:34
#06052:0036
#06056:48
#05652:0018
#05855:0013
#06252:001c
#06452:00640000
#06455:0016
#06658:0056
#06652:0036
#0595a:0044
#05958:00000046
#0013a0:00000014
#002350:26
#0043a0:00140000
#004360:0024
#004320:00000014
#005360:24
#0053a1:14
#005361:00240000
#0063b1:0013
#006381:00000023
#007321:0013
#007361:00000024
#008321:00140000
#008361:0024
#0083a1:00000014
#009361:24
#009320:14
#009360:00240000
#010320:0013
#010350:00000023
#0103b1:0013
#010381:00000023
#0123a1:14
#012361:00000024000000000000000000000000
#013321:14
#013361:00000024000000000000000000000000
#0143b1:13
#014381:00230000
#014351:00000013
#015321:23
#015381:0000000000001323
#0163a1:14
#016381:00000024000000000000000000000000
#016320:14
#016340:00000024000000000000000000000000
#016350:0000000000001323
#0173b0:0000001300000000
#017380:0000000000230000
#0183a0:0000001400000000
#018360:00000000000000340034003424000000
#0203b0:00130000
#020380:0023
#022380:1323
#0223b0:00330000
#024320:0000000000000013
#025360:0023000000000000
#0253b0:0000000000000013
#026380:0033000000002300
#0263b0:00000000000000530000000000000000
#025321:0000000000000013
#026351:0033000000002300
#026321:00000000000000530000000000000000
#031361:14
#0313a1:00340034340024000000000000000000
#032371:17
#0323b1:00000023
#033321:0013
#034321:3326
#034361:000000000000000000000000000000000000000000000000000000000000000000000000000000000000000000000000000000000000000000000000000000000000000000000000000000000000000000000000000000000000000000000000000000000000000000000000000000000000000000000000000000000000000000000000000000000000000000000000000000000000000000000000000000000000000000000000000000000000000000000000000000000000000000000000000000000000000000000000000000000000000000000000000000000000000000000000000000000000000000000000000000000000000000000000000000000000000000000000000000000000000000000000000000000000000000000000000000000000000000000000000000000000000000000000000000000000000000000000000000000000000000000000000000000000000000000000000000000000000000000000000000000000000000000000000000000000000000000000000000000000000000000000000000000000000000000000000000000000000000000000000000000000000000000000000000000000000000000000000000000000000000000000000000000000000000000000000000000000000000000000005300000000000000000000000000000000000000000000000000000000000000000000000000000000000000000000000000000000000000000000000000000000000000000000000000000000000000000000000000000000000000000000000000000000000000000000000000000000000000000000000000000000000000000000000000000000000000000000000000000000000000000000000000000000000000000000000000000000000000000000000000000000000000000000000000000000000000000000000000000000000000000000000000000000000000000000000000000000000000000000000000000000000000000000000000000000000000000000000000000000000000000000000000000000000000000000000000000000000000000000000000000000000000000000000000000000000000000000000000000000000000000000000000000000000000000000000000000000000000000000000000000000000000000000000000000000000000000000000000000000000000000000000000000000000000000000000000000000000000000000000000000000000000000000000000000000000000000000000000000000000000000000000000000000000000000000000000000000000000000000000000000000000000000000000000000000000000000000000000000000000000000000000000000000000000000000000000000000000000000000000000000000000000000000000000000000000000000000000000000000000000000000000000000000000000000000000000000000000000000000000000000000000000000000000000000000000000000000000000000000000000000000000000000000000000000000000000000000000000000000000000000000000000000000000000000000000000000000000000000000000000000000000000000000000000000000000000000000000000000000000000000000000000000000000000000000000000000000000000000000000000000000000000000000000000000000000000000000000000000000000000000000000000000000000000000000000000000000000000000000000000000000000000000000000000000000000000000000000000000000000000000000000000000000000000000000000000000000000000000000000000000000000000000000000000000000000000000000000000000000000000000000000000000000000000000000000000000000000000000000000000000000000000000000000000000000000000000000000000000000000000000000000000000000000000000000000000000000000000000000000000000000000000000000000000000000000000000000000000000000000000000000000000000000000000000000000000000000000000000000000000000000000000000000000000000000000000000000000000000000000000000000000000000000000000000000000000000000000000000000000000000000000000000000000000000000000000000000000000000000000000000000000000000000000000000000000000000000000000000000000000000000000000000000000000000000000000000000000000000000000000000000000000000000000000000000000000000000000000000000000000000000000000000000000000000000000000000000000000000000000000000000000000000000000000000000000000000000000000000000000000000000000000000000000000000000000000000000000000000000000000000000000000000000000000000000000000000000000000000000000000000000000000000000000000000000000000000000000000000000000000000000000000000000000000000000000000000000000000000000000000000000000000000000000000000000000000000000000000000000
#0333b0:0013
#0343b0:33
#034370:00530000
#034380:0026
#034320:00000014
#035360:24
#035360:00140000
#0353a0:0024
#035361:0014
#035321:00000024
#036381:0000000013230000
#0363b1:0000000000001323
#037321:13
#037351:00230000
#0373a1:0000001400240000
#0383a1:00000014
#039361:24
#039361:00140000
#039321:0024
#039360:0014
#0393a0:00000024
#040350:0000000013230000
#040320:0000000000001323
#0413b0:13
#041380:00230000
#042380:00001626
#043320:14
#043360:00240000
#0433a1:00140000
#043361:0024
#044361:0014
#0443a1:0000000000342400
#044360:00000014
#044320:0000000000000034
#045320:24
#045361:14
#0453a1:00240000
#046361:00000014
#0473a1:34
#047361:00240000
#047320:00140024
#047360:0034
#048360:0014
#048320:0000000000342400
#048361:00000014
#0483a1:0000000000000034
#0493a1:24
#049360:14
#049320:00240000
#0503a0:0000000000000014
#051360:00240000
#051320:0014
#051360:00000024
#0523a0:14
#052360:00240000
#052320:0014
#053360:34
#053320:0024
#0533a1:0014
#054361:24
#054321:00160000
#054351:000000000000003636363636260000000000000000000000
#055381:00160000
#055351:000000000000003636363636260000000000000000000000
#064321:00140000
#064351:0026
#066381:0016
#0673c1:00220000
#018950:0014000000000000
#018920:00240000
#018960:00000014
#0199a0:24
#0499a0:0014
#049960:00000024
#049921:00000014
#050961:24
