This file was generated by Ched 2.7.0.0.
#TITLE ""
#ARTIST ""
#DESIGNER ""
#DIFFICULTY 0
#PLAYLEVEL
#SONGID ""
#WAVE ""
#WAVEOFFSET 0
#JACKET ""
#REQUEST "ticks_per_beat 480"
#00002: 4
#BPM01: 155
#00008: 01
#TIL00: "67'475:1, 67'470:10000"
#VOLUME: ""
#HISPEED 00
#MEASUREHS 00
#0271f:11
#02712:23
#0271b:23
#00518:1300000000130000
#00515:0000001300001300
#00512:0000000000000013
#00618:13130000
#00615:0013001300000000
#0061b:0013
#00718:00000013
#00715:00330000000000000000000013000000
#00712:00000000003300001300000000000000
#00418:00130000
#00415:0013
#0041b:23000013
#00412:23
#00410:41
#00915:1300000000130000
#00918:0000001300001300
#0091b:0000000000000013
#01015:13130000
#01018:0013001300000000
#01012:0013
#00815:00130000
#00818:0013
#00812:23000013
#0081b:23
#01215:00000013
#01218:00000013000000000000000000000000
#01210:41
#01315:00000013000000000000000000001300
#01318:00000013
#0141b:13
#01412:00130013
#01418:0000001300130000
#01415:0013
#0161b:00000013000000000000000000000000
#01618:00000013
#01615:0000000000130013
#01512:0000000000130000
#01515:00000013
#01518:0000000000000013
#0171b:13130000
#01712:0013001300000000
#01718:0000000000130013
#01715:00000013
#01812:13130000
#01815:0013
#01818:00000013
#0181b:13
#02018:0013
#02015:0000130000000013
#0201b:23000013
#02012:23
#02010:41
#02118:13130000
#02112:0013000000130000
#02115:0000001300000013
#0211b:00001313
#02218:13
#0221b:00130000
#02215:00000013
#0231b:13
#02318:00001313
#02315:0000000000130013
#02312:00130000
#02415:0013
#0241b:00130023
#02412:00230013
#02418:23
#02518:13130000
#02515:00001313
#02512:00230000
#0251b:00000023
#02618:1313
#0261b:00130000
#02612:2313
#02615:00130000
#0361b:0013000000000000
#03618:0000130000130013
#03615:0000001300001300
#03612:0013
#03610:41
#03712:13
#03715:00000013
#03718:0000000000000013
#0371b:0000001300000000
#03515:1300000000000013
#0351b:0013
#03518:00130000
#03412:00002413
#0341f:0021
#0341a:0024
#03818:00130000
#03815:13
#03812:0013000024000000
#0381b:00000013
#0381a:0024
#04012:0013000000000000
#04015:0000130000130013
#04018:0000001300001300
#0401b:0013
#0411b:13
#04112:0026
#04115:00000026
#03918:1300000000000013
#03912:0013
#03915:00130000
#04314:14000024
#04317:00240000
#0431a:0024
#04312:0024
#04318:0000000000000024
#04412:0013000000000013
#04415:00130013
#04418:0000001300130000
#0441b:0013
#04410:41
#0451b:13
#04512:00001313
#04515:0000000000130000
#04615:00130013
#04618:1313000000000000
#04612:0024
#0461a:0024
#04718:13000013
#04715:0000130000000013
#0471b:0013
#04712:0013
#0481b:0013000000000013
#04818:00130013
#04815:0000001300130000
#04812:0013
#04912:13000014
#0491a:0014
#04917:00000024
#04915:0024
#05018:1414140000000000
#05014:00140014000000000000000000000000
#0501b:00000013
#05015:0013
#05019:00000000005400000000000000000000
#0501a:00000000000054546400000000000000
#05118:1313
#0511b:00130000
#05112:00000013
#05115:0013
#05215:1313
#05212:00130000
#0521b:00000013
#05218:0013
#05318:1313
#05312:13000013
#0531b:00130000
#05415:13130013
#0541a:0024
#05418:00230000
#0551b:00130013
#05518:13
#05512:00230013
#05514:0024
#05618:13130000
#05615:0013001300000000
#0561b:00000013
#0561a:0024
#05612:00002423
#05610:41
#05718:13
#05712:00130023
#05715:0013
#0571b:00230013
#05818:13
#05815:0013000013000000
#0581b:00230013
#05812:00130023
#05918:13
#05912:00132400
#05915:00000014
#05917:0014
#0591a:00000024
#0591b:00230000
#06017:14
#06015:0014
#06012:24
#0601a:0024
#06117:14
#06112:14000014
#0611a:00000014
#0621a:14
#06214:0014000000000000
#06218:00140000
#06212:0000001400000000
#06216:0024
#01112:23
#0111b:23
#01118:00000024000000240000000000000000
#01114:00000000002400000000000000000000
#02812:24
#0281a:24
#02912:24
#0291a:24
#03018:2424
#03014:00240024
#03119:00000024
#03113:00000024
#0311a:24
#03112:24
#0321a:24
#03212:24
#04212:00000025
#04219:00000025
#04214:0000242424000000
#04218:26000000002400240000000000000000
#0641a:00240000
#06512:0023
#0651b:0023
#06518:00000000000000000000002400000024
#06514:00000000000000000000000000240000
#00012:24
#0001a:24
#0011a:00000024
#00312:23000024000000000000000000000000
#00318:00000024000000000000000000000000
#0031b:23
#00314:00000000000000640000000000000000
#0031a:00000000000000640000000000000000
#00319:00000000006400000000000000000000
#00313:00000000006400000000000000000000
#01912:23
#0191b:23
#06612:0025
#06619:0025
#00758:00000053
#00755:00000063
#00752:0053
#0065b:0053
#00555:0000001300000000
#00558:53
#0045b:13000053
#00452:13
#01052:0063
#00958:0000001300000000
#00955:63
#00852:13000063
#0085b:13
#01258:00000053000000000000000000000000
#01355:00000063000000000000000000000000
#01452:00000053
#01555:13
#0165b:00000063000000000000000000000000
#02052:13
#0205b:13
#02258:53
#0225b:00530000
#02658:5353
#0265b:00530000
#02652:5353
#02655:00530000
#0285a:14
#02852:14
#02952:14
#0295a:14
#03058:1414
#03054:00140014
#03358:16
#03352:16
#0315a:54
#03152:64
#03752:63
#0375b:0000005300000000
#03555:6300000000000013
#0355b:0063
#03558:00630000
#03452:00001463
#0345a:0014
#03858:00530000
#03852:0014
#0385a:0014
#0385b:00000053
#0415b:53
#04152:0016
#04155:00000016
#03958:5300000000000013
#03952:0053
#03955:00530000
#04252:00000015
#04259:00000015
#04254:0054
#04258:16
#0455b:53
#04552:00005353
#04555:0000000000530000
#04655:00630000
#04652:0014
#0465a:0014
#04755:0000000000000013
#04952:63
#05055:0053
#0505a:0014
#05158:0063
#05352:23
#05358:0053
#05255:0053
#0545a:0014
#05455:00630000
#05458:00530000
#05452:0014
#05554:0014
#0555b:00630000
#05552:00530000
#05558:0014
#0565a:0014
#05652:0014
#06157:24
#06152:24
#06055:0054
#0605a:0054
#06256:0014
#06452:0014
#0645a:0014
#00252:14
#0025a:14
#02458:13
#04358:0000000000000014
#06652:0015
#06659:0015
#01852:13
#0185b:13
#001320:00000014
#002320:24
#0013a1:00000014
#0023a1:24
#0043b1:00000013
#005381:33
#0053b1:00230000
#0063b1:0013
#006381:00000023
#007321:13000000003333003300000000000000
#007351:00333300330000000000000033000000
#008321:23
#007380:00000013
#0083b0:23
#008320:00000013
#009350:33
#009320:00230000
#010320:0013
#010350:00000023
#012380:13000033000000000000000000000000
#0123b0:0023
#013350:13000033000000000000000000000000
#013320:0023
#014320:00000013
#015350:23
#0163b0:13000033000000000000000000000000
#016380:0023
#022380:1323
#0223b0:00330000
#026380:1333
#0263b0:00330023
#026321:1333
#026351:00330023
#0313a1:14
#031381:0024
#031320:14
#031340:0024
#0323a0:14
#033380:26
#032321:14
#033321:26
#034321:00000013
#035351:33
#035321:00230000
#035380:00130023
#0353b0:0033
#037320:13
#037350:00230000
#0373b0:0000001300000000
#037380:0000000000230000
#038380:00130000
#0383a0:0024
#0383b0:00000013
#039380:33
#0393b0:00230000
#039351:00130023
#039321:0033
#0413b1:13
#041381:00230000
#042341:0014
#042321:00000025
#0453b1:13
#045381:00230000
#045321:00001333
#045351:0000000000330023
#046351:00130000
#046321:0024
#049321:13
#049351:00230000
#050351:0013
#051321:00230000
#051381:0013
#0523b1:00230000
#052351:0013
#053321:53
#053351:0023
#053380:0013
#0543b0:23
#054380:00130000
#0543a0:0024
#054351:00130000
#054321:0024
#055321:00130000
#055341:0024
#0553b0:00130000
#055380:0024
#0603a0:0014
#061370:54
#0613a0:0024
#060351:0014
#061321:54
#061351:0024
#064321:00142400
#0643a0:00142400
#003920:00000014000000000000000000000000
#003940:00000000000000240000000000000000
#003981:00000014000000000000000000000000
#0039a1:00000000000000240000000000000000
#050981:00140000
#0509a1:0000005424000000
#0679d1:000000000000000000000000000000000000000000000000000000000000000000000000000000000000000000000000000000000000000000000000000000000000000000000000000000000000000000000000000000000000000000000011210000000000000000000000000000000000000000000000000000000000000000000000000000000000000000000000000000000000000000000000000000000000000000000000000000000000000000000000000000000000000000000000000000000000000000000000000000000000000000000000000000000000000000000000000000000000000000000000000000000000000000000000000000000000000000000000000000000000000000000000000000000000000000000000000000000000000000000000000000000000000000000000000000000000000000000000000000000000000000000000000000000000000000000000000000000000000000000000000000000000000000000000000000000000000000000000
