This file was generated by Ched 2.7.0.0.
#TITLE ""
#ARTIST ""
#DESIGNER ""
#DIFFICULTY 0
#PLAYLEVEL
#SONGID ""
#WAVE ""
#WAVEOFFSET 0
#JACKET ""
#REQUEST "ticks_per_beat 480"
#00002: 4
#BPM01: 155
#00008: 01
#TIL00: "67'475:1, 67'470:10000"
#VOLUME: ""
#HISPEED 00
#MEASUREHS 00
#0271f:11
#0271a:14
#00412:0014
#00410:41
#00518:1414
#00514:00140000
#00812:14
#0081a:0014
#00914:1414
#00918:00140000
#0101a:14
#01012:00140000
#01019:0014
#01013:00000014
#01212:0014
#01210:41
#0131a:14
#01312:0014
#01418:14
#01414:0014
#0161a:0014
#01614:14
#01712:14
#0171a:0014
#0201a:0014
#02010:41
#02112:1414
#02118:00140000
#02418:14
#02412:0014
#0251a:1414
#02514:00140000
#0221a:14
#02214:0014
#02218:00000014
#02312:14
#02612:14
#02618:0014
#02614:00000014
#02914:14
#0321a:14
#03218:0014
#03212:14
#03214:0014
#0341a:0014
#03414:00000014
#0341f:0021
#03518:14
#03512:00140000
#0351a:0014
#03519:00000014
#03618:14
#03614:0014
#0361a:00000014
#03610:41
#03716:14
#03712:00140000
#03812:0014
#03818:00000014
#03914:14
#0391a:00140000
#03912:0014
#03913:00000014
#04014:14
#04018:0014
#04012:00000014
#04116:14
#0411a:00140000
#04112:00002626
#04312:14
#0431a:00140000
#04314:0014
#04318:00000014
#04412:14
#0441a:00140000
#04414:00001414
#04410:41
#04518:14140000
#0471a:14
#04712:00140000
#04718:0014
#04714:00000014
#0481a:14
#04812:00140000
#04818:00001414
#04914:14140000
#04618:0014
#04614:00000014
#05314:00140000
#0531a:14
#05212:0014
#05216:00000014
#05218:14140000
#05012:0014
#0501a:00000014
#05114:14140000
#0511a:0014
#05112:00000014
#05612:00160000
#05618:0026
#05610:41
#05716:16
#05712:00000014
#05816:14
#0581a:00140000
#05812:0016
#05915:0016
#05912:00000036
#0601a:00000014
#06012:36
#06114:14000014
#0611a:00140000
#06112:0014
#06216:14
#06218:00140000
#06212:0024
#0621a:0024
#06412:00150000
#06419:0025
#00012:14
#0001a:14
#00119:00000015
#00212:15
#0301a:2424
#03012:00240024
#04218:26260000
#05412:00260000
#05518:00260000
#01258:14
#02054:14
#02352:54
#0275a:64
#02858:14
#02954:14
#03352:14
#0335a:14
#0325a:54
#03258:0054
#03252:64
#03254:0064
#04258:00000016
#05452:0016
#05558:0016
#05658:0056
#05756:26
#05852:0056
#05955:0056
#06052:0016
#06652:0015
#06659:0015
#00452:15
#00459:15
#003320:15000035000000350000000000000000
#004320:25
#003391:15000000003500000000000000000000
#004391:25
#006341:14
#006321:0024
#007381:14
#0073a1:0024
#011381:14000034003400340000000000000000
#012381:24
#015381:1424
#018341:14
#018331:00340034
#018321:0034
#019341:34
#020341:24
#023321:14
#023341:0024
#0273a1:14
#028381:24
#031381:1424
#032321:14
#032341:0034
#033321:24
#0323a0:14
#032380:0034
#0333a0:24
#037380:0014
#037390:00000054
#038380:54
#038390:00240000
#042380:00160026
#045320:0014
#045330:00000054
#046320:54
#046330:00240000
#0493a0:0014
#049390:00000054
#0503a0:54
#050390:00240000
#053380:0014
#0543a0:24
#054320:00162600
#055380:00162600
#056380:0016
#057360:56
#057380:0026
#058320:0016
#059350:0036
#059320:00000036
#060320:3626
#065320:00000000000000001500000000350000
#066320:0025
#065391:00000000000000001500003500000035
#066391:0025
#0679d0:000000000000000000000000000000000000000000000000000000000000000000000000000000000000000000000000000000000000000000000000000000000000000000000000000000000000000000000000000000000000000000000011210000000000000000000000000000000000000000000000000000000000000000000000000000000000000000000000000000000000000000000000000000000000000000000000000000000000000000000000000000000000000000000000000000000000000000000000000000000000000000000000000000000000000000000000000000000000000000000000000000000000000000000000000000000000000000000000000000000000000000000000000000000000000000000000000000000000000000000000000000000000000000000000000000000000000000000000000000000000000000000000000000000000000000000000000000000000000000000000000000000000000000000000000000000000000000000000
