This file was generated by Ched 2.7.0.0.
#TITLE ""
#ARTIST ""
#DESIGNER ""
#DIFFICULTY 0
#PLAYLEVEL
#SONGID ""
#WAVE ""
#WAVEOFFSET 0
#JACKET ""
#REQUEST "ticks_per_beat 480"
#00002: 4
#BPM01: 176
#00008: 01
#TIL00: ""
#VOLUME: ""
#HISPEED 00
#MEASUREHS 00
#01612:1414
#00418:0014
#00412:24
#00514:14
#0051a:0014
#00612:14
#00618:0014
#00714:14
#0071a:0014
#00814:14
#00818:0014
#00912:14
#0091a:0014
#01014:14
#01018:0014
#0121a:2414
#01210:41
#01514:14
#01518:0014
#01814:0014
#01418:0014
#02212:14
#0221a:0014
#02314:1414
#02318:00140000
#02814:00140000
#0281a:2414
#02812:00000014
#02810:41
#03012:1414
#03018:00140000
#0301a:00000014
#03218:00140000
#03212:1414
#0321a:00000014
#0341a:1414
#03414:00140000
#03412:00000014
#05218:14
#0521a:0000000000000054
#05418:00140000
#05414:0014
#0541a:00000014
#05412:24
#0541f:21
#0561a:14
#05614:00140000
#05618:0014
#05612:00000014
#05610:41
#05814:00140000
#05818:0014
#05812:00000014
#0581a:14
#06012:14
#06018:00140000
#06014:0014
#0601a:00000014
#06214:00140000
#06218:0014
#06212:00000014
#0621a:24
#0631a:14
#06314:00140000
#06318:00002424
#06412:14
#06418:00140000
#06414:0014
#0641a:00000014
#0661a:14
#06614:00140000
#06618:0014
#06612:00000014
#06812:14
#06818:00140000
#06814:0014
#0681a:00000014
#07014:00140014
#07018:0014
#0701a:24
#07010:41
#0711a:14142400
#07212:14
#07218:00140014
#07214:0014
#07312:14142400
#0741a:14
#07412:00140014
#07418:0014
#0751a:14142400
#07612:14
#0761a:00140014
#07614:0014
#07812:14
#0781a:00000014
#07818:0014
#07814:00140000
#07810:41
#07912:14142400
#0801a:14
#08012:00000014
#08014:0014
#08018:00140000
#0811a:14142400
#08212:14
#0821a:00000014
#08218:0014
#08214:00140000
#08312:14142400
#0841a:14
#08412:00000014
#08414:0014
#08418:00140000
#08612:14
#0861a:14
#0871a:00000014
#08712:25252500
#08719:25252500
#0461f:11
#0431a:2424
#04312:2424
#0441a:24
#04412:24
#00214:2400006400000000
#00318:2626
#00312:00260000
#01114:2424
#01118:00240000
#01918:24
#0191a:0000006400000000
#02618:2424
#02614:00240024
#03112:26
#03118:0026
#03518:26262600
#03718:0024
#03714:00000024
#03914:0024
#03918:00000024
#0481a:24
#05718:26
#05712:0026
#06112:26262600
#06514:24
#06513:00340000
#06912:26262600
#07712:26260000
#07718:0026
#08518:26260000
#08512:0026
#03610:41
#01958:64
#03152:16
#03158:0016
#05258:54
#05758:16
#05752:0016
#06554:54
#06552:0014
#07758:0016
#08552:0016
#0875a:00000014
#002340:1400002400000000
#0133a0:14
#013380:0034
#0143a0:24
#017320:14
#017340:0034
#018320:24
#019380:14
#0193a0:0000002400000000
#020340:14
#020320:0024
#021380:14
#0213a0:0024
#024380:14
#0243a0:0024
#025340:14
#025320:0024
#029380:1424
#033340:1424
#036340:14
#036320:0034
#037340:24
#038380:14
#0383a0:0034
#039380:24
#040320:1424
#041380:1424
#042340:1424
#0443a0:14
#0453a0:24
#044321:14
#045321:24
#046321:14
#046341:0034
#047321:34
#047341:0024
#0483a1:14
#048381:0034
#0493a1:34
#049381:0024
#050321:14
#050341:0034
#051321:34
#051341:0024
#052381:14
#0523a1:0000000000000024
#055341:14
#055321:0024
#059381:14
#0593a1:0024
#065341:14
#065331:00340000
#065321:0024
#0673a1:14
#067381:0024
#0713a1:00001424
#073321:00001424
#0753a1:00001424
#079321:00001424
#0813a1:00001424
#083321:00001424
